La Vida es Bella [4k UHD][Dual spa-ita] Mega



información Técnica
General
Format: Matroska
Format version: Version 4 / Version 2
File size: 5.50 GiB
Duration: 1 h 56 min
Overall bit rate: 6 774 kb/s
Encoded date: UTC 2016-11-02 15:14:30
Writing application: mkvmerge v6.6.0 ('The Edge Of The In Between') built on Dec  1 2013 17:55:00
Writing library: libebml v1.3.0 + libmatroska v1.4.1

Video
Format: HEVC
Format/Info: High Efficiency Video Coding
Codec ID: V_MPEGH/ISO/HEVC
Duration: 1 h 56 min
Bit rate: 5 871 kb/s
Width: 3 840 pixels
Height: 2 160 pixels
Display aspect ratio: 16:9
Frame rate mode: Constant
Frame rate: 29.970 (30000/1001) FPS
Bits/(Pixel*Frame): 0.024
Stream size: 4.76 GiB (87%)

Audio #1
Format: AC-3
Format/Info: Audio Coding 3
Format settings, Endianness: Big
Codec ID: A_AC3
Duration: 1 h 56 min
Bit rate mode: Constant
Bit rate: 384 kb/s
Channel(s): 6 channels
Channel positions: Front: L C R, Side: L R, LFE
Sampling rate: 48.0 kHz
Frame rate: 31.250 FPS (1536 spf)
Bit depth: 16 bits
Compression mode: Lossy
Stream size: 319 MiB (6%)
Language: Español Latino
Service kind: Complete Main

Audio #2
Format: AC-3
Format/Info: Audio Coding 3
Format settings, Endianness: Big
Codec ID: A_AC3
Duration: 1 h 56 min
Bit rate mode: Constant
Bit rate: 384 kb/s
Channel(s): 6 channels
Channel positions: Front: L C R, Side: L R, LFE
Sampling rate: 48.0 kHz
Frame rate: 31.250 FPS (1536 spf)
Bit depth: 16 bits
Compression mode: Lossy
Stream size: 319 MiB (6%)
Language: Italian
Service kind: Complete Main

Text
Format: VobSub
Muxing mode: zlib
Codec ID: S_VOBSUB
Codec ID/Info: Picture based subtitle format used on DVDs
Language: Spanish


Miniaturas + Capturas











Password para descomprimir: identi

Links de descarga.



Para MegaDownloader


Cita: Mostrar
peliculas - programas
97 Puntos Score: 8.8/10
Visitas: 2050 Favoritos: 7
Ver los usuarios que votaron...
17 Comentarios La Vida es Bella [4k UHD][Dual spa-ita] Mega
español castellano? joder?
Cita bruxe: Mostrar
Con el MkVerge le aumentas el audio latino
Cita krstno: Mostrar
Jjajajaj si bro esa mala costumbre de leer primero los comentarios xD gracias capo
siendo así +10
Muchas gracias!!    Pelicula de aquellas!!  
De lujo men.  

Salutes.
Un clasico. Muy buena pelicula y un excelente aporte. Muchas gracias!
genial aporte.. me la llevo... una consulta.. me podrias decir algun reproductor bueno de este formato??
Gran aporte amigo, gracias por compartir  
@brianmixers @MD7391 @bruxe @cesarbbcc @David31979 @MLPF @mariano125 Gracias por pasar y comentar... que la disfruten.

@mariano125 Para esta película usé VLC y no me dió problemas.
Cita brianmixers: Mostrar
Creo que autor del post te quiso rsponder a vos y me respondio a mi. Por mi parte te puedo decir que el VLC (que es magistral) se me traba pero el kodec lite pack me salva
Descargando gracias .-
bajando muchas gracias y una pregunta es open mate o  pantalla abierta total  
Muchas gracias por el aporte  
gracias por el aporte
Para dejar un comentario Registrate! o.. eres ya usuario? Accede!
Facebook Identi