Leopulga
"Ripeos AVC y HEVC solo para coleccionistas."

Exclusivo|The Raid Duology (2011-2014) 1080p x265




Hola amigos de Identi.li regreso a postear en esta gran comunidad, nada más ni nada menos que peliculas en la máxima calidad posible imitando al Blu-ray Original.

Esto se consigue mediante una Config. (Cfg) de ripeo exigente llamada Slow y con un crf20 o menor (crf19-18-17) dependiendo la pelicula, que es lo que alcanza a distinguir el ojo humano y dejando unos rips al peso menor posible con calidad me animaria a decir casi como el Bluray.

Postearé peliculas raras o joyas por asi decirlo que no se encuentran en buena calidad en la Web, se aceptan peticiones pero esto no quiere decir que haga todas, sino las que me parezcan que lo merecen, ya que esta Config. de ripeo tarda un total de 20/50 o más horas en ripear una pelicula y el tiempo es oro uno bien dijo por ahi, sin más vamos con la pelicula del título.

Importante

SOMOS UN GRUPO DE ENCODERS, EN ESTE CASO LES TRAIGO LA DUOLOGIA THE RAID (2011-2014) EN CALIDAD X265 SLOW CRF20 RIPEADA POR UNA DEL GRUPO @THEWOMAN00, DEJEN SUS AGRADECIMIENTOS HACIA ELLA.


The Raid Duology (2011-2014) x265 1080p Trial (Ind/Lat/Eng).




Sinopsis

The Raid Redemption (2011)

Todo el mundo en Jakarta sabe que en los barrios bajos de la ciudad hay un edificio que sirve de refugio para los criminales más peligrosos de Indonesia. Algo así como una fortaleza del mal cuya leyenda crece día a día y a la que incluso la policía teme acercarse. Pese a ello, un grupo de fuerzas especiales de élite intentará derribar sus defensas y penetrar en sus entrañas. Pero la operación no sale según lo previsto, y los policías se encontrarán atrapados en el edificio, sin escapatoria posible y rodeados de asesinos y gángsters.

The Raid 2: Berandal (2014)

Poco después de finalizar la sangrienta redada, el inspector Rama se ve obligado a infiltrarse en las filas del sindicato del crimen de Yakarta con el fin de proteger a su familia y descubrir la corrupción en el seno de su propia fuerza policial.

Ficha Técnica

Fuente: BD50 (USA) - LAS 2.
Ripeo: SLOW CRF18 (x265) - LAS 2.
Tiempo de Ripeo: 10 a 15 horas.
Audios: Latino 5.1 (BD)/Inglés DTS (BD)/Indonesio DTS (BD) - LAS 2.
Subtítulos: Si (PGS-Español) y (SRT-Español)
IMDB: 7.6 y 8.0

Mediainfo

General
Unique ID                   : 244335342968068273596988863690352648245 (0xB7D1467D4CE8D14FB197BA4124306035)
Complete name               : Redada 2011 1080p BluRay x265 HEVC DTS Dual Latino-THEWOMAN00.mkv
Format                      : Matroska
Format version              : Version 4 / Version 2
File size                   : 3.91 GiB
Duration                    : 1 h 41 min
Overall bit rate            : 5 532 kb/s
Encoded date                : UTC 2017-04-07 22:54:51
Writing application         : mkvmerge v9.6.0 ('Slave To Your Mind') 64bit
Writing library             : libebml v1.3.4 + libmatroska v1.4.5

Video
ID                          : 1
Format                      : HEVC
Format/Info                 : High Efficiency Video Coding
Format profile              : [email protected]@Main
Codec ID                    : V_MPEGH/ISO/HEVC
Duration                    : 1 h 41 min
Bit rate                    : 3 631 kb/s
Width                       : 1 920 pixels
Height                      : 1 080 pixels
Display aspect ratio        : 16:9
Frame rate mode             : Constant
Frame rate                  : 23.976 (24000/1001) FPS
Color space                 : YUV
Chroma subsampling          : 4:2:0
Bit depth                   : 8 bits
Bits/(Pixel*Frame)          : 0.073
Stream size                 : 2.56 GiB (66%)
Writing library             : x265 1.8+2-55a4a9b920ff:[Windows][GCC 5.2.0][64 bit] 8bit+10bit+12bit
Encoding settings           : wpp / ctu=64 / min-cu-size=8 / max-tu-size=32 / tu-intra-depth=1 / tu-inter-depth=1 / me=3 / subme=3 / merange=57 / rect / no-amp / max-merge=3 / temporal-mvp / no-early-skip / rdpenalty=0 / no-tskip / no-tskip-fast / strong-intra-smoothing / no-lossless / no-cu-lossless / no-constrained-intra / no-fast-intra / open-gop / no-temporal-layers / interlace=0 / keyint=250 / min-keyint=23 / scenecut=40 / rc-lookahead=25 / lookahead-slices=0 / bframes=8 / bframe-bias=0 / b-adapt=2 / ref=3 / limit-refs=0 / weightp / no-weightb / aq-mode=1 / qg-size=32 / aq-strength=1.00 / cbqpoffs=0 / crqpoffs=0 / rd=4 / psy-rd=0.30 / rdoq-level=2 / psy-rdoq=1.00 / signhide / deblock / sao / no-sao-non-deblock / b-pyramid / cutree / rc=crf / crf=18.0 / qcomp=0.60 / qpmin=0 / qpmax=51 / qpstep=4 / ipratio=1.40 / pbratio=1.30
Default                     : Yes
Forced                      : No

Audio #1
ID                          : 2
Format                      : AC-3
Format/Info                 : Audio Coding 3
Format settings, Endianness : Big
Codec ID                    : A_AC3
Duration                    : 1 h 41 min
Bit rate mode               : Constant
Bit rate                    : 384 kb/s
Channel(s)                  : 6 channels
Channel positions           : Front: L C R, Side: L R, LFE
Sampling rate               : 48.0 kHz
Frame rate                  : 31.250 FPS (1536 spf)
Bit depth                   : 16 bits
Compression mode            : Lossy
Stream size                 : 278 MiB (7%)
Language                    : Spanish
Service kind                : Complete Main
Default                     : Yes
Forced                      : No

Audio #2
ID                          : 3
Format                      : DTS
Format/Info                 : Digital Theater Systems
Mode                        : 16
Format settings, Endianness : Big
Codec ID                    : A_DTS
Duration                    : 1 h 41 min
Bit rate mode               : Constant
Bit rate                    : 1 509 kb/s
Channel(s)                  : 6 channels
Channel positions           : Front: L C R, Side: L R, LFE
Sampling rate               : 48.0 kHz
Frame rate                  : 93.750 FPS (512 spf)
Bit depth                   : 24 bits
Compression mode            : Lossy
Stream size                 : 1.07 GiB (27%)
Language                    : Indonesian
Default                     : No
Forced                      : No

Text #1
ID                          : 4
Format                      : UTF-8
Codec ID                    : S_TEXT/UTF8
Codec ID/Info               : UTF-8 Plain Text
Duration                    : 1 h 34 min
Bit rate                    : 23 b/s
Count of elements           : 521
Stream size                 : 16.6 KiB (0%)
Language                    : Spanish
Default                     : Yes
Forced                      : No

Text #2
ID                          : 5
Format                      : PGS
Muxing mode                 : zlib
Codec ID                    : S_HDMV/PGS
Codec ID/Info               : Picture based subtitle format used on BDs/HD-DVDs
Duration                    : 1 h 35 min
Bit rate                    : 6 280 b/s
Count of elements           : 1045
Stream size                 : 4.27 MiB (0%)
Language                    : Spanish
Default                     : No
Forced                      : No


Imágenes


Descarga

The Raid Redemption (2011).



Cita: Mostrar

The Raid 2 Berandal (2014).



Cita: Mostrar

Contraseña

No Tiene.

Agradecimientos

Quiero agradecerle a la user @THEWOMAN00 que hizo los ripeos y compartió los enlaces para que los postee.

Nota: Cualquier problema o link caido hagánmelo saber que resubo las peliculas, saludos.







Post Anterior

Click en la imagen

peliculas - programas
56 Puntos Score: 8/10
Visitas: 1724 Favoritos: 3
Ver los usuarios que votaron...
14 Comentarios Exclusivo|The Raid Duology (2011-2014) 1080p x265
ja si te llevo 10 a 15 hs rippear a mi me va a llevar unas hs tmb pasar a h264 , gracias
amigo excelente el trabajo que hacen, pero si tambien se puede en h264(es mas universal se agradeceria mucho) gracias x tu trabajo
Cita Gussthavo: Mostrar
depende de que forma lo hagas jajajaja saludos!
Cita brandon17: Mostrar
se posteara de ambos codecs las pelis, solo algunas se haran en x265 y x264 saludos bro!
Gracias amigo excelente, sobretodo la primera. A convertirla en x264.
Cita nestoromm: Mostrar
saludos mi amigo! gracias x pasarte y siempre dejar tu comentario de aliento!
Nuevo post, de nuevo 10 puntines pa vos!
Uff The Raid, un clasico instantaneo del cine de artes marciales. Ambas me encantan, pero la primera tiene... nose como una magia(? Y en x265! que grande  
Cita Protoss01: Mostrar
para mi junto con ipman las mejores de artes marciales contemporaneas, ups creo di uan pista del prox post! jajajaj gracias x los puntos!
@Leopulga Jaja ya lo espero  
Grcaias mil  
Cita eltiopi: Mostrar

Cita charlymont: Mostrar
disfrutenla!
Gracias!! descargando antes que cierre copiapop
Para dejar un comentario Registrate! o.. eres ya usuario? Accede!
Facebook Identi