Leopulga
"Ripeos AVC y HEVC solo para coleccionistas."

Exclusivo|Requiem for a Dream 2000 1080p Placebo

Introducción

Hola amigos de Identi.li regreso a postear en esta gran comunidad, nada más ni nada menos que peliculas en la máxima calidad posible imitando al Blu-ray Original.

Esto se consigue mediante una Config. (Cfg) de ripeo exigente llamada Placebo y con un crf20 que es lo que alcanza a distinguir el ojo humano y dejando unos rips al peso menor posible con calidad me animaria a decir casi como el Bluray.

Postearé peliculas raras o joyas por asi decirlo que no se encuentran en buena calidad en la Web, se aceptan peticiones pero esto no quiere decir que haga todas, sino las que me parezcan que lo merecen, ya que esta Config. de ripeo tarda un total de 20/50 o más horas en ripear una pelicula y el tiempo es oro uno bien dijo por ahi, sin más vamos con la pelicula del título.


Requiem for a Dream|Director's Cut (2000) 1080p Inglés+Subtitulos.

Sinopsis

Harry (Jared Leto) y su madre (Ellen Burstyn) tienen sueños muy distintos: ella está permanentemente a dieta esperando el día en que pueda participar en su concurso televisivo preferido; la ambición de Harry y su novia Marion (Jennifer Connelly) es hacerse ricos vendiendo droga y utilizar las ganancias para abrir un negocio propio, pero nunca tienen el dinero suficiente para ello. A pesar de todo, Harry y Marion no se resignan y harán lo inimaginable para conseguir la vida que anhelan.

Ficha Técnica

Fuente: BD50 (Usa).
Ripeo: Placebo Crf20.
Tiempo de Ripeo: 30 horas.
Audio: Inglés 5.1 DTS.
Subtítulos: Si (Srt-Spanish).
IMDB: 8.4

Mediainfo

Complete name               : C:UsersLeonardoDownloadsRequiem for a Dream Director´s Cut (2000) Blu-ray 1080p English DTS.mkv
Format                      : Matroska
Format version              : Version 4 / Version 2
File size                   : 9.62 GiB
Duration                    : 1 h 41 min
Overall bit rate            : 13.6 Mb/s
Encoded date                : UTC 2017-04-28 10:17:46
Writing application         : mkvmerge v8.6.1 ('Flying') 64bit
Writing library             : libebml v1.3.3 + libmatroska v1.4.4

Video
ID                          : 1
Format                      : AVC
Format/Info                 : Advanced Video Codec
Format profile              : [email protected]
Format settings, CABAC      : Yes
Format settings, ReFrames   : 4 frames
Codec ID                    : V_MPEG4/ISO/AVC
Duration                    : 1 h 41 min
Bit rate                    : 11.8 Mb/s
Width                       : 1 920 pixels
Height                      : 1 080 pixels
Display aspect ratio        : 16:9
Frame rate mode             : Constant
Frame rate                  : 23.976 (24000/1001) FPS
Color space                 : YUV
Chroma subsampling          : 4:2:0
Bit depth                   : 8 bits
Scan type                   : Progressive
Bits/(Pixel*Frame)          : 0.237
Stream size                 : 8.36 GiB (87%)
Title                       : Requiem for a Dream (2000)
Writing library             : x264 core 148 r2708 86b7198
Encoding settings           : cabac=1 / ref=4 / deblock=1:0:0 / analyse=0x3:0x133 / me=tesa / subme=11 / psy=1 / psy_rd=1.00:0.00 / mixed_ref=1 / me_range=24 / chroma_me=1 / trellis=2 / 8x8dct=1 / cqm=0 / deadzone=21,11 / fast_pskip=0 / chroma_qp_offset=-2 / threads=12 / lookahead_threads=3 / sliced_threads=0 / nr=0 / decimate=1 / interlaced=0 / bluray_compat=0 / constrained_intra=0 / bframes=16 / b_pyramid=2 / b_adapt=2 / b_bias=0 / direct=3 / weightb=1 / open_gop=0 / weightp=2 / keyint=240 / keyint_min=24 / scenecut=40 / intra_refresh=0 / rc_lookahead=60 / rc=crf / mbtree=1 / crf=20.0 / qcomp=0.60 / qpmin=0 / qpmax=69 / qpstep=4 / vbv_maxrate=62500 / vbv_bufsize=78125 / crf_max=0.0 / nal_hrd=none / filler=0 / ip_ratio=1.40 / aq=1:1.00
Default                     : Yes
Forced                      : No
Color range                 : Limited
Color primaries             : BT.709
Transfer characteristics    : BT.709
Matrix coefficients         : BT.709

Audio
ID                          : 2
Format                      : DTS
Format/Info                 : Digital Theater Systems
Mode                        : 16
Format settings, Endianness : Big
Codec ID                    : A_DTS
Duration                    : 1 h 41 min
Bit rate mode               : Constant
Bit rate                    : 1 509 kb/s
Channel(s)                  : 6 channels
Channel positions           : Front: L C R, Side: L R, LFE
Sampling rate               : 48.0 kHz
Frame rate                  : 93.750 FPS (512 spf)
Bit depth                   : 24 bits
Compression mode            : Lossy
Stream size                 : 1.07 GiB (11%)
Title                       : English
Language                    : English
Default                     : Yes
Forced                      : No

Text
ID                          : 3
Format                      : UTF-8
Codec ID                    : S_TEXT/UTF8
Codec ID/Info               : UTF-8 Plain Text
Title                       : Spanish
Language                    : Spanish
Default                     : Yes
Forced                      : No

Menu
00:00:00.000                : :00:00:00.000
00:00:00.834                : :00:00:00.792
00:00:30.614                : :00:00:30.572
00:05:32.207                : :00:05:32.207
00:09:08.423                : :00:09:08.423
00:14:02.675                : :00:14:02.675
00:19:02.850                : :00:19:02.850
00:23:36.832                : :00:23:36.832
00:27:35.112                : :00:27:35.112
00:29:48.745                : :00:29:48.745
00:32:48.758                : :00:32:48.758
00:37:18.695                : :00:37:18.695
00:49:26.005                : :00:49:26.005
00:56:26.425                : :00:56:26.425
01:06:07.213                : :01:06:07.213
01:13:25.985                : :01:13:25.985
01:21:03.025                : :01:21:03.025
01:29:19.354                : :01:29:19.354



Imágenes








Descarga

Requiem for a Dream|Director's Cut 1080p English+Subtitulos Srt.



Contraseña

LeonardoPulgaman


Agradecimientos

Quiero agradecerle al user @MaximoAlfa inventor de este tipo de ripeos por su ayuda y por tomarme de alumno jeje.

Nota: Preferí hacer la versión Director´s Cut por eso es solo audio inglés y no dual audio (+Latino), saludos.





descargar peliculas - descargar programas
114 Puntos Score: 8.8/10
Visitas: 1309 Favoritos: 1
Ver los usuarios que votaron...
24 Comentarios Exclusivo|Requiem for a Dream 2000 1080p Placebo
Gracias!!! peliculon!!!!  
Leopulga una consulta, en este tipo de ripeo la calidad ed superior en audio y video con los ripeos normales? y si se nota a la hora de ponerlo en una pantalla? Es porque me gustaria volverlas a bajar con tu forma de ripear. gracias
Amigo excelente aporte sólo que 9.56 gb supongo que así de bien se verá  
Cita David31979: Mostrar
de nada amigo disfrutala!

Cita nestoromm: Mostrar
hola bro la verdad no quiero juzgar otros ripeos.. lo unico q te puedo decir es q creo esta es la mejor forma de ripear que hay, en tanto peso=calidad, se logra un parecido al bluray increible, te invito a bajarla y sacarte las dudas mi amigo! saludos!!

Cita Rob_Diablo: Mostrar
hola bro, veras en esta forma de ripear yo no determino el peso sino q lo ahce el programa.. segun lo q necesite a pelicula para verse increible! saludos!
+ 10 papu , no tendra una version dual latino :'v , es buena esta peli  
Cita zerox17: Mostrar
gracias x pasarte y los puntos, es la version director cut bro no hay audio latino q calze! culaquier cosa t digo
Este tipo de ripeo se basa en la calidad y no en el tamaño final (gigas) tanto una pelicula puede salir de  3 gigas de tamaño o hasta de incluso de 14 gigas todo depende de el tipo de video que tenga la pelicula como son colores, granulado y si es a pantalla completa o con franjas negras etc.. En pocas palabras el ripeo consiste en calidad constante en cambio con el ripeo en donde se prefija el bitrate aveces sulen quedarse cortas en algunas escenas o sobradas en otra, ademas de usan los parametros de encode mas exigentes hay.
Leopulga; maximoalfa  muchas gracias amigos por sus consejos, voy averiguar con la primera.
Cita cesarbbcc: Mostrar

Cita LaloDK: Mostrar
gracias x pasar!!
Me habia olvidado los puntines aqui!  
Cita Protoss01: Mostrar
q la disfrutes bro!!
Tremendo aporte, gracias por el trabajo y por compartir, muchas gracias, +10 para vos
Cita Pijuy: Mostrar
disfrutala!! gracias x los puntos!
Cita NIGHTKILLE: Mostrar
de nad disfrutala!!
Cita steampunk: Mostrar
gracias x pasarte y los puntos!
Cita Espinal: Mostrar
dsifrutala!
Tus aportes son excelentes, solo tengo 5 amigo, muchas gracias!!!  
Cita ascension: Mostrar
no importa los puntos, lo mejor es q te tomes el tiempo de comentar, disfrutala!  
Muchas Gracias!
Para dejar un comentario Registrate! o.. eres ya usuario? Accede!
Facebook Identi