Leopulga
"Ripeos AVC y HEVC solo para coleccionistas."

Exclusivo|Ladda Land (2011) 1080p Placebo CRF20

Introducción

Hola amigos de Identi.li regreso a postear en esta gran comunidad, nada más ni nada menos que peliculas en la máxima calidad posible imitando al Blu-ray Original.

Esto se consigue mediante una Config. (Cfg) de ripeo exigente llamada Placebo y con un crf20 que es lo que alcanza a distinguir el ojo humano y dejando unos rips al peso menor posible con calidad me animaria a decir casi como el Bluray.

Postearé peliculas raras o joyas por asi decirlo que no se encuentran en buena calidad en la Web, se aceptan peticiones pero esto no quiere decir que haga todas, sino las que me parezcan que lo merecen, ya que esta Config. de ripeo tarda un total de 20/50 o más horas en ripear una pelicula y el tiempo es oro uno bien dijo por ahi, sin más vamos con la pelicula del título.


Ladda Land (2011) 1080p Thai+Subtitulos Srt.



Sinopsis

Película basada en una historia real sobre una urbanización cerrada y abandonada que se convirtió en un páramo desierto debido a una serie de muertes y terribles sucesos paranormales. Allí se instala la familia de Thee, un tipo corriente cuyo sueldo de oficinista no le ha permitido nunca comprar la casa de sus sueños. Cuando se le presenta la oportunidad de ascender como jefe adjunto de Marketing en Chiang Mai, un lugar donde los salarios son más altos y las viviendas más asequibles. Thee, no duda en aceptar el trabajo y comprarse una casa. Pero, inesperadamente, sus sueños se convirtieron en una pesadilla.


Ficha Técnica

Fuente: BD25 (Thai).
Ripeo: Placebo Crf20.
Tiempo de Ripeo: 38 horas.
Audio: Thailandés DTS-HD.
Subtítulos: Si (Srt-Spanish).
IMDB: 6.4

Mediainfo

General
Unique ID                   : 193060079768686588035557685258333931643 (0x913E04D49D268EAEA5C4F1040FA3487B)
Complete name               : C:UsersLeonardoDownloadsVideoLadda Land (2011)Ladda land (2011) Blu-ray 1080p AVC DTS-HD Thai.mkv
Format                      : Matroska
Format version              : Version 4 / Version 2
File size                   : 4.10 GiB
Duration                    : 1 h 57 min
Overall bit rate            : 4 998 kb/s
Movie name                  : Laddaland.2011.BDRemux.1080p_by_vedigo
Encoded date                : UTC 2017-04-24 15:13:51
Writing application         : mkvmerge v8.6.1 ('Flying') 64bit
Writing library             : libebml v1.3.3 + libmatroska v1.4.4

Video
ID                          : 1
Format                      : AVC
Format/Info                 : Advanced Video Codec
Format profile              : [email protected]
Format settings, CABAC      : Yes
Format settings, ReFrames   : 4 frames
Codec ID                    : V_MPEG4/ISO/AVC
Duration                    : 1 h 57 min
Bit rate                    : 3 141 kb/s
Width                       : 1 920 pixels
Height                      : 1 080 pixels
Display aspect ratio        : 16:9
Frame rate mode             : Constant
Frame rate                  : 24.000 FPS
Color space                 : YUV
Chroma subsampling          : 4:2:0
Bit depth                   : 8 bits
Scan type                   : Progressive
Bits/(Pixel*Frame)          : 0.063
Stream size                 : 2.58 GiB (63%)
Title                       : Ladda Land (2011) Thai - Leo River Plate
Writing library             : x264 core 148 r2708 86b7198
Encoding settings           : cabac=1 / ref=4 / deblock=1:0:0 / analyse=0x3:0x133 / me=tesa / subme=11 / psy=1 / psy_rd=1.00:0.00 / mixed_ref=1 / me_range=24 / chroma_me=1 / trellis=2 / 8x8dct=1 / cqm=0 / deadzone=21,11 / fast_pskip=0 / chroma_qp_offset=-2 / threads=12 / lookahead_threads=3 / sliced_threads=0 / nr=0 / decimate=1 / interlaced=0 / bluray_compat=0 / constrained_intra=0 / bframes=16 / b_pyramid=2 / b_adapt=2 / b_bias=0 / direct=3 / weightb=1 / open_gop=0 / weightp=2 / keyint=240 / keyint_min=24 / scenecut=40 / intra_refresh=0 / rc_lookahead=60 / rc=crf / mbtree=1 / crf=20.0 / qcomp=0.60 / qpmin=0 / qpmax=69 / qpstep=4 / vbv_maxrate=62500 / vbv_bufsize=78125 / crf_max=0.0 / nal_hrd=none / filler=0 / ip_ratio=1.40 / aq=1:1.00
Default                     : Yes
Forced                      : No
Color range                 : Limited
Color primaries             : BT.709
Transfer characteristics    : BT.709
Matrix coefficients         : BT.709

Audio
ID                          : 2
Format                      : DTS
Format/Info                 : Digital Theater Systems
Format profile              : MA / Core
Mode                        : 16
Format settings, Endianness : Big
Codec ID                    : A_DTS
Duration                    : 1 h 57 min
Bit rate mode               : Variable / Constant
Bit rate                    : 1 853 kb/s / 1 509 kb/s
Channel(s)                  : 6 channels
Channel positions           : Front: L C R, Side: L R, LFE
Sampling rate               : 48.0 kHz
Frame rate                  : 93.750 FPS (512 spf)
Bit depth                   : 16 bits
Compression mode            : Lossless / Lossy
Stream size                 : 1.52 GiB (37%)
Language                    : tai
Default                     : Yes
Forced                      : No

Text
ID                          : 3
Format                      : UTF-8
Codec ID                    : S_TEXT/UTF8
Codec ID/Info               : UTF-8 Plain Text
Duration                    : 1 h 47 min
Bit rate                    : 26 b/s
Count of elements           : 687
Stream size                 : 21.1 KiB (0%)
Language                    : Spanish
Default                     : Yes
Forced                      : No



Imágenes



Descarga

Ladda Land (2011) 1080p Thai DTS-HD+Subtitulos Srt.



Contraseña

LeonardoPulgaman

Agradecimientos

Quiero agradecerle al user @MaximoAlfa inventor de este tipo de ripeos por su ayuda y por tomarme de alumno jeje.

Nota: el ripeo se hizo desde un BD25 porque no existe BD50, saludos.

descargar peliculas - descargar programas
155 Puntos Score: 9.1/10
Visitas: 1112 Favoritos: 1
Ver los usuarios que votaron...
24 Comentarios Exclusivo|Ladda Land (2011) 1080p Placebo CRF20
interesante pelicula se ve la tendre en cuenta te van 10  
Cita Angelkaido: Mostrar
gracias x pasarte bro, es bastante buena! disfrutala!
Cita Espaik: Mostrar
de nada disfrutala!
@ivanla12 gracias x los puntos!!!
gracias  por por subirla
Cita sachiel12: Mostrar
de nada bro disfrutala!
Cita sachiel12: Mostrar
de nada bro disfrutala!
@Duliori_28 gracias x los puntos!!
Cita maximoalfa: Mostrar
tus comentarios son especiales! :lol:
Ja ja… creí que te equivocaste en escribir La La Land.
Me la descargo para ver que tal es.
Saludos y gracias.  
Cita tolnaina: Mostrar
jajajaja si varios se han confundido x eso! dale bro espero te guste!
Esta si que no la eh visto, a bajarla también! A ver si me sorprende el cine Tailandes.  
Cita Protoss01: Mostrar
es bastante buena! de lo mejor de esta decada, disfrutala gracias x pasarte!
Se ve genial, muchas gracias, +10 para vos
Cita Pijuy: Mostrar
disfrutala!!
gracias x los puntos! @osa16
Cita Espinal: Mostrar
disfrutala!
Cita rushdie: Mostrar
podrías poner la opción al link.... ya que jdowloader esta presentando muchos problemas ...
Yo estoy descargando con Megadownloader y para eso pide el link de descarga.... de antemano gracias...!!!
Cita paradigmat: Mostrar
me denunciaron links bro, lamentablemente no sera posible.. pero una vez q el jd agregue el enlace hacele click derecho al link y pone abrir desde el navegador y luego lo agregas a megadownloader!! saludos!
Para dejar un comentario Registrate! o.. eres ya usuario? Accede!
Facebook Identi