Fifty Shades Darker 2017 Solo Audio Latino Bluray

Fifty Shades Darker (2017) Version Unrated Solo Audio Latino [DTS 5.1 + AC3 5.1] [Extraído del Bluray]


SINOPSIS
Cincuenta Sombras Más Oscuras: Cuando Christian Grey, que se siente herido, intenta convencer a Anastasia Steele de que vuelva a formar parte de su vida, ella le exige un nuevo acuerdo antes de aceptar. Pero cuando la pareja empieza a ser más confiada y a tener una cierta estabilidad, aparecen mujeres del pasado de Christian decididas a frenar en seco sus esperanzas de un futuro juntos… Secuela de “50 sombras de Grey”, en la que Grey sigue explorando sus demonios interiores y la joven Anastasia confronta sus sentimientos y confusión sobre su relación con el atractivo millonario, un tipo misterioso lleno de secretos.



MEDIAINFO DTS 5.1

Format : DTS
Format/Info : Digital Theater Systems
File size : 722 MiB
Duration : 2 h 11 min
Overall bit rate mode : Constant
Overall bit rate : 768 kb/s

Audio
Format : DTS
Format/Info : Digital Theater Systems
Mode : 16
Format settings, Endianness : Big
Duration : 2 h 11 min
Bit rate mode : Constant
Bit rate : 768 kb/s
Channel(s) : 6 channels
Channel positions : Front: L C R, Side: L R, LFE
Sampling rate : 48.0 kHz
Frame rate : 93.750 FPS (512 spf)
Bit depth : 24 bits
Compression mode : Lossy
Stream size : 722 MiB (100%)


MEDIAINFO AC3 5.1


Format : AC-3
Format/Info : Audio Coding 3
File size : 602 MiB
Duration : 2 h 11 min
Overall bit rate mode : Constant
Overall bit rate : 640 kb/s

Audio
Format : AC-3
Format/Info : Audio Coding 3
Mode extension : CM (complete main)
Format settings, Endianness : Big
Duration : 2 h 11 min
Bit rate mode : Constant
Bit rate : 640 kb/s
Channel(s) : 6 channels
Channel positions : Front: L C R, Side: L R, LFE
Sampling rate : 48.0 kHz
Frame rate : 31.250 FPS (1536 spf)
Bit depth : 16 bits
Compression mode : Lossy
Stream size : 602 MiB (100%)




MEGA
DTS 5.1
[/b]

AC3 5.1


SUP



UPTOBOX
DTS 5.1
[/b]

AC3 5.1
SUP




Si usan el audio no olviden dar Creditos: AVOHD
SIN PASS PARA DESCOMPRIMIR
descargar peliculas - descargar programas
60 Puntos Score: 10/10
Visitas: 1498 Favoritos: 0
Ver los usuarios que votaron...
4 Comentarios Fifty Shades Darker 2017 Solo Audio Latino Bluray
Muchas gracias me llevo el ac3
muchas gracias maestro, descargando
buen aporte gracias
Para dejar un comentario Registrate! o.. eres ya usuario? Accede!
Facebook Identi