Leopulga
"Ripeos AVC y HEVC solo para coleccionistas."

Exclusivo|Haute Tensión (2003) 1080p Placebo Crf20

Introducción

Hola amigos de Identi.li regreso a postear en esta gran comunidad, nada más ni nada menos que peliculas en la máxima calidad posible imitando al Blu-ray Original.

Esto se consigue mediante una Config. (Cfg) de ripeo exigente llamada Placebo y con un crf20 que es lo que alcanza a distinguir el ojo humano y dejando unos rips al peso menor posible con calidad me animaria a decir casi como el Bluray.

Postearé peliculas raras o joyas por asi decirlo que no se encuentran en buena calidad en la Web, se aceptan peticiones pero esto no quiere decir que haga todas, sino las que me parezcan que lo merecen, ya que esta Config. de ripeo tarda un total de 20/50 o más horas en ripear una pelicula y el tiempo es oro uno bien dijo por ahi, sin más vamos con la pelicula del título.

Haute Tensión (2003) 1080p (2 versiones).



Sinopsis

La joven Marie es invitada a pasar unos días en la casa de los padres de su mejor amiga, una granja aislada y rodeada de campos de maiz. Las dos chicas piensan que allí encontrarán la tranquilidad necesaria para estudiar. Pero sus esperanzas son vanas. De noche llega a la casa un implacable asesino que mata a todos los miembros de la familia. Empezará entonces un trepidante duelo entre Marie y el intruso.


Ficha Técnica

Fuente: BD25 (Usa).
Ripeo: Placebo Crf20.
Tiempo de Ripeo: 20 horas.
Audio V.1: Francés DTS-HD.
Audio V.2: Francés DTS-HD/Latino 2.0 (DVD).
Subtítulos: Si (Srt-Spanish).
IMDB: 6.8


Mediainfo

General
Unique ID                   : 223341398983219216689152905671587150021 (0xA805FD22CDBD6C8983D301F85D3C38C5)
Complete name               : Haute Tensión (2003)Haute Tensión.2003.1080p.Bluray.x264.Leopulga.mkv
Format                      : Matroska
Format version              : Version 4 / Version 2
File size                   : 6.45 GiB
Duration                    : 1 h 30 min
Overall bit rate            : 10.2 Mb/s
Encoded date                : UTC 2017-04-22 22:22:41
Writing application         : mkvmerge v11.0.0 ('Alive') 64bit
Writing library             : libebml v1.3.4 + libmatroska v1.4.5

Video
ID                          : 1
Format                      : AVC
Format/Info                 : Advanced Video Codec
Format profile              : [email protected]
Format settings, CABAC      : Yes
Format settings, ReFrames   : 4 frames
Codec ID                    : V_MPEG4/ISO/AVC
Duration                    : 1 h 30 min
Bit rate                    : 8 005 kb/s
Width                       : 1 920 pixels
Height                      : 1 080 pixels
Display aspect ratio        : 16:9
Frame rate mode             : Constant
Frame rate                  : 23.976 (24000/1001) FPS
Color space                 : YUV
Chroma subsampling          : 4:2:0
Bit depth                   : 8 bits
Scan type                   : Progressive
Bits/(Pixel*Frame)          : 0.161
Stream size                 : 5.07 GiB (79%)
Title                       : Haute Tensión (2003)
Writing library             : x264 core 148 r2708 86b7198
Encoding settings           : cabac=1 / ref=4 / deblock=1:0:0 / analyse=0x3:0x133 / me=tesa / subme=11 / psy=1 / psy_rd=1.00:0.00 / mixed_ref=1 / me_range=24 / chroma_me=1 / trellis=2 / 8x8dct=1 / cqm=0 / deadzone=21,11 / fast_pskip=0 / chroma_qp_offset=-2 / threads=12 / lookahead_threads=3 / sliced_threads=0 / nr=0 / decimate=1 / interlaced=0 / bluray_compat=0 / constrained_intra=0 / bframes=16 / b_pyramid=2 / b_adapt=2 / b_bias=0 / direct=3 / weightb=1 / open_gop=0 / weightp=2 / keyint=240 / keyint_min=24 / scenecut=40 / intra_refresh=0 / rc_lookahead=60 / rc=crf / mbtree=1 / crf=20.0 / qcomp=0.60 / qpmin=0 / qpmax=69 / qpstep=4 / vbv_maxrate=62500 / vbv_bufsize=78125 / crf_max=0.0 / nal_hrd=none / filler=0 / ip_ratio=1.40 / aq=1:1.00
Default                     : Yes
Forced                      : No
Color range                 : Limited
Color primaries             : BT.709
Transfer characteristics    : BT.709
Matrix coefficients         : BT.709

Audio
ID                          : 2
Format                      : DTS
Format/Info                 : Digital Theater Systems
Format profile              : MA / Core
Mode                        : 16
Format settings, Endianness : Big
Codec ID                    : A_DTS
Duration                    : 1 h 30 min
Bit rate mode               : Variable / Constant
Bit rate                    : 2 159 kb/s / 768 kb/s
Channel(s)                  : 6 channels
Channel positions           : Front: L C R, Side: L R, LFE
Sampling rate               : 48.0 kHz
Frame rate                  : 93.750 FPS (512 spf)
Bit depth                   : 16 bits
Compression mode            : Lossless / Lossy
Stream size                 : 1.37 GiB (21%)
Title                       : Francés. DTS-HD
Language                    : French
Default                     : Yes
Forced                      : No

Text
ID                          : 3
Format                      : UTF-8
Codec ID                    : S_TEXT/UTF8
Codec ID/Info               : UTF-8 Plain Text
Duration                    : 1 h 26 min
Bit rate                    : 19 b/s
Count of elements           : 382
Stream size                 : 12.3 KiB (0%)
Title                       : Español Latinoamericano.
Language                    : Spanish
Default                     : Yes
Forced                      : No


Imágenes


Descarga

Versión 1: DTS-HD Francés(BD) + Subtítulos.




Versión 2: DTS-HD Francés (BD)/AC3 Latino 2.0 (DVD) + Subtítulos.


Contraseña

LeonardoPulgaman

Agradecimientos

Quiero agradecerle al user @MaximoAlfa inventor de este tipo de ripeos por su ayuda y por tomarme de alumno jeje.

Nota: Si notan que la imágen tiene mucho grano recuerden que trato de imitar lo más posible al BD Original, si bajan dicho BD notarán la similitud entre Fuente/Ripeo, saludos.



Cita: Mostrar


Si querés unirte a nuestro grupo de Telegram hacer click en el enlace una vez que tengan instalado dicho programa y listo, ya podrán hablar con el grupo de uploaders!
descargar peliculas - descargar programas
153 Puntos Score: 9/10
Visitas: 1893 Favoritos: 7
Ver los usuarios que votaron...
49 Comentarios Exclusivo|Haute Tensión (2003) 1080p Placebo Crf20
Buena iniciativa y excelente aporte  
Pulga sos vos quien creo perro con la confi de los master pape y maximoalfa ,bien ahi x el aporte, otro + que suma la mjor calidad  
Cita WorldWarZ: Mostrar
Muchas gracias bro x el comentario y los puntos!
Tremenda calidad y tremenda película, tengo una duda; ¿para esta calidad de vídeo se necesita algún reproductor  de vídeo en particular? yo uso Media Player Classic
Cita Leopulga: Mostrar
Cita dariokk: Mostrar
Gracias perrito, que paso que no estas en el grupo de telegram unite, estamos todos y hay mas nuevos uploaders, gracias x los puntos

las que se vienen

en 10 horas sale esta joyita
Cita BigBoss.: Mostrar
no bro es h264, cualquier reproductor deberia reproducirla sin problemas, distinto es si es h265 pero aun no subire de esas, pero si tengo pensado ya q se consige la misma calidad y comprime mas el peso, saludos y gracias x el comentario y los puntos!
@Leopulga Gracias master, repito muy buena peli, que lujo verla en esta calidad. Como sugerencia Terminator 2 y Mad Max Fury Road (2015) me parecen pelis geniales que podrias considerar para proximos post
Muchas gracias amigo, tremenda calidad! +10
excelente calidad, puedes considerar la Trilogia de Matrix también, principalmente la primera.
Bien bien leo trayendo la mejor calidad a esta web Saludos!...
Cita BigBoss.: Mostrar
esas las tengo, las hicieron otros uplaoders del grupo con la misma config. les voy a pedir si las puedo resubir y postear con los respectivos creditos, te mando mp con la rta, saludos
Cita AlexUpMx: Mostrar
Muchas gracias bro x el buen coment y los puntos!
Cita nestoromm: Mostrar
las tengo en x265 de otro uploader del grupo las podria resubir si me da el permiso, dime si te interesa ese codec de video (h265) saludos!
Cita maximoalfa: Mostrar
gracias perrito x enseñarme x mas q contestas cada 24hs lol
Leopulga me sirve mas el x264 para que me lea la pantalla sino tranquilo lo convertiria yo despues.
Gracias
Cita nestoromm: Mostrar
ok bro luego hago el post si la spuedes convertir, pasa q yo tengo tanto x264 y x265 segun la peli si es oscura elijo x264 y si es nueva o peli con luz x265, saludos
BUENO HASTA QUE aparecio alguien con INICIATIVA ojala lo conviertas en tendencia te deseo todo lo mejor y sigue asi
y no te dejes influenciar por malos comentarios GRACIAS
ahora A descargar ...
Cita alejandrok: Mostrar
si bro, ya tengo uan coleccion de 500 peliculas con esta config o similar, ya tengo 3 mas para subir! posteare 1 x dia
Buena pela si puedes sube frontieres
Leopulga si claro te entiendo, por mi cualquiera esta bien. muchas gracias por la info
Cita terryzz84: Mostrar
la vere y si me gusta la ripeo saludos y gracias x pasar

Cita nestoromm: Mostrar
dale bro!
Muchísimas gracias bro, tremenda calidad. Estaré atento a tus futuros  
Cita pab201: Mostrar
de nada bro! si se vienen varias que ire posteando no estan en la web, saludos
@Duliori_28 Gracias por los puntos mi amigo!
Se agradece el esfuerzo.  

Salutes.
Cita MLPF: Mostrar
gracias x pasar y los puntos, saludos!
muchas gracias amigo, van mis 10
Cita Alanjav: Mostrar
muchas gracias alanja!  
buenisimo master !!!  
Cita TroyMcClue: Mostrar
de nada bro, disfrutala!!!
Tremendo, gracias, descargando
Disfrutala bro!
Gracias amigo  
exelente!!!!!! 10
Cita steampunk: Mostrar
gracias x los puntos, disfrutla!!!
el link que pusiste no lleva a ningun lado, me refiero a lo de telegram
Cita gambe_2: Mostrar
bro, tenes q tener instalado el telegram primero en el pc y dsps lo abris!
@Leopulga y de donde saco telegram
@Leopulga ya entendi, gracias de todas maneras
Cita gambe_2: Mostrar
es una aplicacion bro, https://telegram.org/ la bajas tu celular y dss clickeas en el enlace
Cita gambe_2: Mostrar
dale salu2
Recien ayer vi la película en calidad 720p y me gusto. Y hoy que tenia pensado descargarla para tenerla en mi colección; me vengo enterando que mega ya no deja descargar sin limites en megadownloader   espero y pronto haya una forma de descargar de mega sin limites y poder disfrutar de este gran aporte  
Cita AquilesVoy: Mostrar
bro lo siento x ahi si pides alguna peli y me cuelgo pasa q esto lleva su tiempo aca t dejo la carpeta cn todos mis aportes! http://copiapop.com/LeonardoPulgaman/peliculas-x264-109620
Cita Leopulga: Mostrar
Bro. GRACIAS por el encale descargare todo lo que pueda antes de que tiren copia pop por ahi me entere que la van a tumbar.    
Cita AquilesVoy: Mostrar
si ya respalde todo igual descarga sin cuidado, saludos bro!
Para dejar un comentario Registrate! o.. eres ya usuario? Accede!
Facebook Identi