jerseyzv
"offline"

22 Minutos (2014) WEB-DL 720p DUAL Lat-Rus

22 Minutos (2014) WEB-DL 720p DUAL Lat-Rus









Sinopsis:
El mariscal Shaposhnikov capitanea un grupo encargado de liberar a un buque ruso transportador de metano que ha sido retenido por piratas somalíes. En plena reyerta, un marinero queda aprisionado en una cisterna.


Datos Técnicos:
General
Complete name             : 22.??????.(2014).BDRip.720p.jerseyzv.mkv
Format                         : Matroska
Format version               : Version 4 / Version 2
File size                        : 1.62 GiB
Duration                       : 1 h 22 min
Overall bit rate              : 2 797 kb/s

Video
Format                        : AVC
Format/Info                 : Advanced Video Codec
Format profile               : [email protected]
Duration                      : 1 h 22 min
Bit rate                       : 2 283 kb/s
Width                         : 1 280 pixels
Height                        : 534 pixels
Stream size                 : 1.32 GiB (82%)
Title                           : 22 ?????? (2014)

Audio #1
Format                        : AAC
Duration                      : 1 h 22 min
Bit rate                       : 192 kb/s
Channel(s)                   : 6 channels
Channel positions          : Front: L C R, Side: L R, LFE
Sampling rate               : 48.0 kHz
Frame rate                  : 46.875 FPS (1024 spf)
Compression mode        : Lossy
Stream size                 : 113 MiB (7%)
Title                          : Ruso
Language                    : Russian

Audio #2
Format                        : AAC
Duration                      : 1 h 22 min
Bit rate                       : 320 kb/s
Channel(s)                   : 2 channels
Channel positions          : Front: L R
Sampling rate               : 48.0 kHz
Frame rate                  : 46.875 FPS (1024 spf)
Compression mode        : Lossy
Stream size                 : 190 MiB (11%)
Title                          : Español Latino
Language                    : Spanish

Text
Format                         : UTF-8
Codec ID                      : S_TEXT/UTF8
Codec ID/Info                : UTF-8 Plain Text
Duration                       : 9 min 29 s
Bit rate                        : 5 b/s
Count of elements          : 14
Stream size                  : 408 Bytes (0%)
Title                            : Español
Language                     : Spanish
Default                        : Yes
Forced                        : Yes

PD. Subido por jerseyzv













descargar peliculas - descargar programas
80 Puntos Score: 8/10
Visitas: 1809 Favoritos: 1
Ver los usuarios que votaron...
14 Comentarios 22 Minutos (2014) WEB-DL 720p DUAL Lat-Rus
cuando vere un heroe ruso, peliando contra las fuerzas del mal gringas, jajaja  
no la conocía, alguien que la haya visto sabe que tal esta la peli?  
se agradece el aporte

bajado y descomprimido

tiene pinta de buena
:up:bajando muchas gracias bro saludos
gracias por aportar cine ruso  
Gracias solo me quedaban 3 puntos hoy  
Gracias por compartir
muchas gracias  
Para dejar un comentario Registrate! o.. eres ya usuario? Accede!
Facebook Identi