jerseyzv
"offline"

Tramps (2016) WEB-DL 1080p (DUAL) (Lat-Eng)

Tramps (2016) WEB-DL 1080p (DUAL) (Lat-Eng)










Sinopsis:
Danny y Ellie se ven envueltos en un turbio intercambio de maletines. Cuando se tuerce el asunto, estos dos jóvenes desconocidos pasarán juntos una noche muy movida.


Datos Técnicos:

General
Complete name     : Tramps.(2016).1080p.WEB-DL.DUAL.Lat.Eng.jerseyzv.mkv
Format                  : Matroska
Format version      : Version 4 / Version 2
File size                : 5.54 GiB
Duration               : 1 h 23 min
Overall bit rate      : 9 549 kb/s

Video
Format                                  : AVC
Format/Info                           : Advanced Video Codec
Format profile                        : [email protected]
Format settings, CABAC          : Yes
Format settings, ReFrames      : 4 frames
Codec ID                               : V_MPEG4/ISO/AVC
Duration                                : 1 h 23 min
Bit rate                                 : 8 971 kb/s
Width                                    : 1 920 pixels
Height                                   : 1 080 pixels
Display aspect ratio                : 16:9
Frame rate mode                   : Constant
Frame rate                            : 23.976 (24000/1001) FPS
Color space                           : YUV
Chroma subsampling             : 4:2:0
Bit depth                              : 8 bits
Scan type                             : Progressive
Bits/(Pixel*Frame)                : 0.180
Stream size                          : 5.21 GiB (94%)
Title                                     : Tramps (2016)
Writing library                       : x264 core 148 r2638 7599210
Language                             : English
Default                                : Yes
Forced                                 : No

Audio #1
ID                                         : 2
Format                                   : AC-3
Format/Info                            : Audio Coding 3
Mode extension                      : CM (complete main)
Format settings, Endianness    : Big
Codec ID                               : A_AC3
Duration                                : 1 h 23 min
Bit rate mode                         : Constant
Bit rate                                 : 384 kb/s
Channel(s)                             : 6 channels
Channel positions                   : Front: L C R, Side: L R, LFE
Sampling rate                        : 48.0 kHz
Frame rate                            : 31.250 FPS (1536 spf)
Bit depth                               : 16 bits
Compression mode                : Lossy
Stream size                           : 228 MiB (4%)
Title                                     : Inglés
Language                             : English
Default                                 : Yes
Forced                                 : No

Audio #2
ID                                         : 3
Format                                   : AC-3
Format/Info                            : Audio Coding 3
Mode extension                       : CM (complete main)
Format settings, Endianness    : Big
Codec ID                               : A_AC3
Duration                                : 1 h 23 min
Bit rate mode                         : Constant
Bit rate                                  : 192 kb/s
Channel(s)                             : 2 channels
Channel positions                   : Front: L R
Sampling rate                        : 48.0 kHz
Frame rate                            : 31.250 FPS (1536 spf)
Bit depth                               : 16 bits
Compression mode                : Lossy
Stream size                           : 114 MiB (2%)
Title                                     : Español Latino
Language                             : Spanish
Default                                 : No
Forced                                 : No

Text #1
ID                                   : 4
Format                            : UTF-8
Codec ID                         : S_TEXT/UTF8
Codec ID/Info                  : UTF-8 Plain Text
Duration                          : 1 h 16 min
Bit rate                            : 40 b/s
Count of elements            : 791
Stream size                     : 22.6 KiB (0%)
Title                                : Español
Language                       : Spanish
Default                           : Yes
Forced                            : No

Text #2
ID                                   : 5
Format                            : UTF-8
Codec ID                         : S_TEXT/UTF8
Codec ID/Info                  : UTF-8 Plain Text
Duration                          : 1 h 16 min
Bit rate                            : 51 b/s
Count of elements            : 825
Stream size                     : 28.6 KiB (0%)
Title                                : Inglés
Language                       : English
Default                           : No
Forced                           : No

Text #3
ID                                  : 6
Format                           : UTF-8
Codec ID                        : S_TEXT/UTF8
Codec ID/Info                 : UTF-8 Plain Text
Duration                        : 1 h 14 min
Bit rate                          : 2 b/s
Count of elements          : 53
Stream size                    : 1.32 KiB (0%)
Title                              : Español Forced
Language                      : Spanish
Default                         : No
Forced                          : Yes

Text #4
ID                                   : 7
Format                            : UTF-8
Codec ID                         : S_TEXT/UTF8
Codec ID/Info                  : UTF-8 Plain Text
Duration                         : 54 min 47 s
Bit rate                           : 2 b/s
Count of elements           : 29
Stream size                    : 1.02 KiB (0%)
Title                               : Inglés Forced
Language                       : English
Default                          : No
Forced                           : Yes




PD. Extraído de NETTFLIX con subtítulos normales y forzados por jerseyzv

Subído a MEGA























descargar peliculas - descargar programas
30 Puntos Score: 10/10
Visitas: 2510 Favoritos: 3
Ver los usuarios que votaron...
6 Comentarios Tramps (2016) WEB-DL 1080p (DUAL) (Lat-Eng)
buenisimo,gracias
Para dejar un comentario Registrate! o.. eres ya usuario? Accede!
Facebook Identi