Espinal
"......"

Una Mente Brillante (2001) FULL 1080p Latino-Ing

Una Mente Brillante (2001) FULL 1080p Latino-Ing



SINOPSIS

 Obsesionado con la búsqueda de una idea matemática original, el brillante estudiante John Forbes Nash (Russell Crowe) llega a Princeton en 1947 para realizar sus estudios de postgrado. Es un muchacho extraño y solitario, al que sólo comprende su compañero de cuarto (Paul Bettany). Por fin, Nash esboza una revolucionaria teoría y consigue una plaza de profesor en el MIT. Alicia Lardé (Jennifer Connelly), una de sus alumnas, lo deja fascinado al mostrarle que las leyes del amor están por encima de las de las matemáticas. Gracias a su prodigiosa habilidad para descifrar códigos es reclutado por Parcher William (Ed Harris), del departamento de Defensa, para ayudar a los Estados Unidos en la Guerra Fría contra la Unión Soviética.

FICHA TÉCNICA

Título original : A Beautiful Mind
Otro titulo : Una mente brillante
Año : 2001
Duración : 130 min.
País : Estados Unidos
Director : Ron Howard
Guión : Akiva Goldsman (Libro: Sylvia Nasar)
Música : James Horner
Fotografía : Roger Deakins
Reparto : Russell Crowe, Jennifer Connelly, Ed Harris, Paul Bettany, Adam Goldberg, Judd Hirsch, Christopher Plummer, Josh Lucas, Anthony Rapp, Austin Pendleton, Jason Gray-Stanford, Vivien Cardone, Ron Howard
Productora : Dreamworks / Universal Pictures / Imagine Entertainment
Género : Drama | Biográfico. Basado en hechos reales. Colegios & Universidad. Enfermedad. Discapacidad. Años 40. Años 50. Años 80. Años 90. Guerra Fría. Drama psicológico

Información mediainfo

General
Complete name : Una Mente Brillante (2001) FULL 1080p Latino-Ingles
Format : Matroska
Format version : Version 2
File size : 4.33 GiB
Duration : 2h 15mn
Overall bit rate : 4 579 Kbps
Movie name : Una Mente Brillante (2001) FULL 1080p Latino-Ingles
Encoded date : UTC 2015-03-11 08:08:56
Writing application : mkvmerge v5.7.0 ('The Whirlwind') built on Jul 8 2012 20:08:51
Writing library : libebml v1.2.3 + libmatroska v1.3.0

Video
ID : 1
Format : AVC
Format/Info : Advanced Video Codec
Format profile : [email protected]
Format settings, CABAC : Yes
Format settings, ReFrames : 2 frames
Format settings, GOP : M=3, N=24
Muxing mode : Header stripping
Codec ID : V_MPEG4/ISO/AVC
Duration : 2h 15mn
Bit rate : 3 848 Kbps
Width : 1 920 pixels
Height : 1 080 pixels
Display aspect ratio : 16:9
Frame rate mode : Constant
Frame rate : 23.976 fps
Color space : YUV
Chroma subsampling : 4:2:0
Bit depth : 8 bits
Scan type : Progressive
Bits/(Pixel*Frame) : 0.077
Stream size : 3.64 GiB (84%)
Title : [WwW.CinemaniaHDD.com]
Writing library : x264 core
Default : Yes
Forced : No
Color primaries : BT.709
Transfer characteristics : BT.709
Matrix coefficients : BT.709

Audio #1
ID : 2
Format : AC-3
Format/Info : Audio Coding 3
Mode extension : CM (complete main)
Format settings, Endianness : Big
Muxing mode : Header stripping
Codec ID : A_AC3
Duration : 2h 15mn
Bit rate mode : Constant
Bit rate : 192 Kbps
Channel count : 2 channels
Channel positions : Front: L R
Sampling rate : 44.1 KHz
Bit depth : 16 bits
Compression mode : Lossy
Delay relative to video : 1s 900ms
Stream size : 186 MiB (4%)
Title : Audio Latino
Language : Spanish
Default : Yes
Forced : No

Audio #2
ID : 3
Format : AC-3
Format/Info : Audio Coding 3
Mode extension : CM (complete main)
Format settings, Endianness : Big
Muxing mode : Header stripping
Codec ID : A_AC3
Duration : 2h 15mn
Bit rate mode : Constant
Bit rate : 448 Kbps
Channel count : 6 channels
Channel positions : Front: L C R, Side: L R, LFE
Sampling rate : 48.0 KHz
Bit depth : 16 bits
Compression mode : Lossy
Stream size : 434 MiB (10%)
Title : Audio Ingles
Default : No
Forced : No

Text #1
ID : 4
Format : UTF-8
Codec ID : S_TEXT/UTF8
Codec ID/Info : UTF-8 Plain Text
Title : Subtitulos Latino
Language : Spanish
Default : No
Forced : No

Text #2
ID : 5
Format : VobSub
Muxing mode : zlib
Codec ID : S_VOBSUB
Codec ID/Info : The same subtitle format used on DVDs
Title : Subtitulos Ingles
Language : English
Default : No
Forced : No

Text #3
ID : 6
Format : UTF-8
Codec ID : S_TEXT/UTF8
Codec ID/Info : UTF-8 Plain Text
Default : Yes
Forced : No

Mega







Una Mente Brillante (2001) |Latino|Ligera Mkv
http://www.identi.li/index.php?topic=464780
descargar peliculas - descargar programas
60 Puntos Score: 10/10
Visitas: 1312 Favoritos: 5
Ver los usuarios que votaron...
3 Comentarios Una Mente Brillante (2001) FULL 1080p Latino-Ing
muchas gracias, excelente calidad!
Para dejar un comentario Registrate! o.. eres ya usuario? Accede!
Facebook Identi