jerseyzv
"offline"

Arsenal (2017) 1080p BDRip Subtitulado

Arsenal (2017) 1080p BDRip Subtitulado










Sinopsis
El hermano de un importante hombre de negocios ha sido secuestrado. Pocos detalles se conocen de su desaparición, aunque se sospecha de mafioso de Philadelphia. Sin embargo, pronto empiezan a desencadenarse los rumores de que ha sido el propio joven el que ha orquestado todo el rapto. Entonces será cuando el empresario deba tomar cartas en el asunto.


Datos Técnicos:
General
Complete name                  : Arsenal.(2017).1080p.BDRip.Sub.jerseyzv.mkv
Format                              : Matroska
Format version                  : Version 4 / Version 2
File size                            : 1.74 GiB
Duration                            : 1 h 32 min
Overall bit rate                  : 2 707 kb/s
Writing application            : mkvmerge v10.0.0 ('To Drown In You') 64bit
Writing library                   : libebml v1.3.4 + libmatroska v1.4.5

Video
ID                                           : 1
Format                                    : AVC
Format/Info                            : Advanced Video Codec
Format profile                         : [email protected]
Format settings, CABAC           : Yes
Format settings, ReFrames      : 4 frames
Codec ID                                 : V_MPEG4/ISO/AVC
Duration                                 : 1 h 32 min
Bit rate                                   : 2 050 kb/s
Width                                     : 1 920 pixels
Height                                    : 800 pixels
Display aspect ratio                 : 2.40:1
Frame rate mode                    : Constant
Frame rate                             : 23.976 (24000/1001) FPS
Color space                             : YUV
Chroma subsampling               : 4:2:0
Bit depth                                : 8 bits
Scan type                               : Progressive
Bits/(Pixel*Frame)                  : 0.056
Stream size                            : 1.32 GiB (76%)
Title                                       : Arsenal (2017)
Writing library                        : x264 core 148
Language                               : English
Default                                   : Yes
Forced                                   : No

Audio
ID                                           : 2
Format                                   : AC-3
Format/Info                            : Audio Coding 3
Mode extension                       : CM (complete main)
Format settings, Endianness    : Big
Codec ID                                 : A_AC3
Duration                                 : 1 h 32 min
Bit rate mode                          : Constant
Bit rate                                   : 640 kb/s
Channel(s)                               : 6 channels
Channel positions                    : Front: L C R, Side: L R, LFE
Sampling rate                          : 48.0 kHz
Frame rate                              : 31.250 FPS (1536 spf)
Bit depth                                 : 16 bits
Compression mode                   : Lossy
Stream size                             : 422 MiB (24%)
Title                                       : Inglés
Language                                : English
Default                                   : Yes
Forced                                    : No

Text
ID                                    : 3
Format                             : PGS
Muxing mode                    : zlib
Codec ID                          : S_HDMV/PGS
Codec ID/Info                  : Picture based subtitle format used on BDs/HD-DVDs
Duration                           : 1 h 27 min
Bit rate                             : 17.0 kb/s
Count of elements             : 2008
Stream size                      : 10.6 MiB (1%)
Title                                 : Español
Language                         : Spanish
Default                             : Yes
Forced                              : No


Subido por jerseyzv













peliculas - programas
7 Puntos Score: 7/10
Visitas: 2900 Favoritos: 1
Ver los usuarios que votaron...
0 Comentarios Arsenal (2017) 1080p BDRip Subtitulado
Este post no tiene comentarios. Sea el primero!
Para dejar un comentario Registrate! o.. eres ya usuario? Accede!
Facebook Identi