jerseyzv
"offline"

The Watcher (2016) 720p WEBRip (Sub NETFLIX)

The Watcher (2016) 720p WEBRip (Sub NETFLIX)











Sinopsis: Una pareja compra la casa de sus sueños.No tardarán en darse cuenta de que alguien vigila sus movimientos.



Datos Técnicos:

General
Complete name               : The Watcher_(2016)_720p_WEB-DL_Sub_Español_jerseyzv.mkv
Format                          : Matroska
Format version               : Version 4 / Version 2
File size                        : 2.25 GiB
Duration                       : 1 h 29 min
Overall bit rate              : 3 601 kb/s
Encoded date                : UTC 2017-04-20 11:50:19
Writing application          : mkvmerge v10.0.0 ('To Drown In You') 64bit
Writing library                : libebml v1.3.4 + libmatroska v1.4.5

Video
ID                                    : 1
Format                              : AVC
Format/Info                       : Advanced Video Codec
Format profile                     : [email protected]
Format settings, CABAC        : Yes
Format settings, ReFrames    : 5 frames
Codec ID                           : V_MPEG4/ISO/AVC
Duration                            : 1 h 27 min
Bit rate                             : 3 560 kb/s
Width                               : 1 280 pixels
Height                              : 720 pixels
Display aspect ratio            : 16:9
Frame rate mode                : Constant
Frame rate                        : 29.970 (30000/1001) FPS
Color space                       : YUV
Chroma subsampling           : 4:2:0
Bit depth                          : 8 bits
Scan type                        : Progressive
Bits/(Pixel*Frame)              : 0.129
Stream size                      : 2.17 GiB (96%)
Title                                : The Watcher (2016)
Writing library                   : x264 core 148 r2708 86b7198
Language                        : English
Default                            : Yes
Forced                            : No
Color range                      : Limited
Color primaries                 : BT.601 NTSC
Transfer characteristics      : BT.709
Matrix coefficients            : BT.601

Audio
ID                                : 2
Format                          : AAC
Format/Info                    : Advanced Audio Codec
Format profile                 : LC
Codec ID                       : A_AAC
Duration                        : 1 h 27 min
Bit rate                         : 128 kb/s
Channel(s)                     : 2 channels
Channel positions            : Front: L R
Sampling rate                 : 48.0 kHz
Frame rate                     : 46.875 FPS (1024 spf)
Compression mode           : Lossy
Stream size                    : 80.0 MiB (3%)
Title                              : Inglés
Language                       : Spanish
Default                          : Yes
Forced                          : No

Text
ID                               : 3
Format                         : UTF-8
Codec ID                      : S_TEXT/UTF8
Codec ID/Info                : UTF-8 Plain Text
Duration                       : 1 h 29 min
Bit rate                        : 45 b/s
Count of elements          : 947
Stream size                   : 29.6 KiB (0%)
Title                            : Español
Language                      : Spanish
Default                         : Yes
Forced                         : No



PD.Subido por jerseyzv












descargar peliculas - descargar programas
20 Puntos Score: 10/10
Visitas: 2470 Favoritos: 0
Ver los usuarios que votaron...
13 Comentarios The Watcher (2016) 720p WEBRip (Sub NETFLIX)
Se ve interesante, muchas gracias por el aporte
me dice archivo tiene formato desconocido o esta dañado
@betito4867 que programa usas para reproducir? cuando lo descomprimes que formato te sale? .mkv?
no sale nada como extension
@betito4867 prueba poniendole la extension .mkv
no se si lo hice bien poniendo .mkv al final de todo o si va en otro lado
@betito4867 utiliza el MPC-HC para reproducir
pero si no puedo descomprimir siquiera,si no va mala suerte
@betito4867 pues si no puedes descomprimir es porque alguna parte te lo has descargado corrupto tendras que bajartelo denuevo
Para dejar un comentario Registrate! o.. eres ya usuario? Accede!
Facebook Identi