jerseyzv
"offline"

Let's Be Evil (2016) 1080p WEB-DL (Sub Netflix)

Lets Be Evil (2016) 1080p WEB-DL (Sub Netflix)









Sinopsis: Tres adultos son contratados para supervisar un avanzado programa de aprendizaje en niños superdotados con gafas de realidad aumentada. Pero el experimento no tarda en torcerse en la instalación subterránea donde están alojados los niños.


Datos Técnicos:

General
Complete name                  : Let's.Be.Evil.(2016).Subtitulado.1080p.BluRay.jerseyzv.mkv
Format                         : Matroska
Format version                 : Version 4 / Version 2
File size                      : 1.26 GiB
Duration                       : 1 h 22 min
Overall bit rate               : 2 179 kb/s
Writing application            : mkvmerge v10.0.0 ('To Drown In You') 64bit
Writing library                : libebml v1.3.4 + libmatroska v1.4.5

Video
ID                             : 1
Format                         : AVC
Format/Info                    : Advanced Video Codec
Format profile                 : [email protected]
Format settings, CABAC         : Yes
Format settings, ReFrames      : 4 frames
Codec ID                       : V_MPEG4/ISO/AVC
Duration                       : 1 h 22 min
Bit rate                       : 2 050 kb/s
Width                          : 1 920 pixels
Height                         : 1 040 pixels
Display aspect ratio           : 1.85:1
Frame rate mode                : Constant
Frame rate                     : 23.976 (24000/1001) FPS
Color space                    : YUV
Chroma subsampling             : 4:2:0
Bit depth                      : 8 bits
Scan type                      : Progressive
Bits/(Pixel*Frame)             : 0.043
Stream size                    : 1.18 GiB (94%)
Writing library                : x264 core 148
Default                        : Yes
Forced                         : No

Audio
ID                             : 2
Format                         : AAC
Format/Info                    : Advanced Audio Codec
Format profile                 : LC
Codec ID                       : A_AAC
Duration                       : 1 h 22 min
Bit rate                       : 127 kb/s
Channel(s)                     : 2 channels
Channel positions              : Front: L R
Sampling rate                  : 48.0 kHz
Frame rate                     : 46.875 FPS (1024 spf)
Compression mode               : Lossy
Delay relative to video        : -43 ms
Stream size                    : 75.1 MiB (6%)
Language                       : English
Default                        : Yes
Forced                         : No

Text
ID                             : 3
Format                         : UTF-8
Codec ID                       : S_TEXT/UTF8
Codec ID/Info                  : UTF-8 Plain Text
Duration                       : 1 h 21 min
Bit rate                       : 54 b/s
Count of elements              : 979
Stream size                    : 32.7 KiB (0%)
Language                       : Español (Netflix)
Default                        : Yes
Forced                         : No














PD. Subido por jerseyzv

Subido a MEGA




descargar peliculas - descargar programas
16 Puntos Score: 5.3/10
Visitas: 2088 Favoritos: 2
Ver los usuarios que votaron...
2 Comentarios Let's Be Evil (2016) 1080p WEB-DL (Sub Netflix)
Para dejar un comentario Registrate! o.. eres ya usuario? Accede!
Facebook Identi