Rapidos y furiosos 8 sin sub 2017 HDCAM Mega

Bienvenidos a mi nuevo post
Rapidos y furiosos 8 sin sub 2017  HDCAM Mega



The.Fate.of.the.Furious.2017.HDCAM.HQMic.XVID.AC3.HQ.Hive-CM8

Año: 2017
País: Estados Unidos
Idioma: Ingles Subtitulado al Español
Género: Acción, Crimen
Resolución: 720x304
Formato: avi
Estreno:  13 de abril de 2017 (Estados Unidos1 )
Duración: 137 minutos

Mediainfo

Video

ID : 0

Format : MPEG-4 Visual

Format profile : Advanced [email protected]

Format settings, BVOP : 2

Format settings, QPel : Yes

Format settings, GMC : No warppoints

Format settings, Matrix : Default (H.263)

Muxing mode : Packed bitstream

Codec ID : XVID

Codec ID/Hint : XviD

Duration : 2h 6mn

Bit rate : 1 800 Kbps

Width : 720 pixels

Height : 304 pixels

Display aspect ratio : 2.35:1

Frame rate : 29.970 fps

Color space : YUV

Chroma subsampling : 4:2:0

Bit depth : 8 bits

Scan type : Progressive

Compression mode : Lossy

Bits/(Pixel*Frame) : 0.274

Stream size : 1.59 GiB (87%)

Writing library : XviD 1.2.1 (UTC 2008-12-04)

Audio

ID : 1

Format : AC-3

Format/Info : Audio Coding 3

Mode extension : CM (complete main)

Format settings, Endianness : Big

Codec ID : 2000

Duration : 2h 6mn

Bit rate mode : Constant

Bit rate : 256 Kbps

Channel(s) : 2 channels

Channel positions : Front: L R

Sampling rate : 48.0 KHz

Bit depth : 16 bits

Compression mode : Lossy

Delay relative to video : 28ms

Stream size : 232 MiB (12%)

Alignment : Split accross interleaves

Interleave, duration : 33 ms (1.00 video frame)

Interleave, preload duration : 500 ms



Sinopsis:

Cuando una misteriosa mujer seduce a Dom en el mundo del terrorismo y una traición de los más cercanos a él, la tripulación se enfrenta a pruebas que los probarán como nunca antes.









Pd. No dejes de comentar!
peliculas - programas
0 Puntos Score: 0/10
Visitas: 3396 Favoritos: 0
4 Comentarios Rapidos y furiosos 8 sin sub 2017 HDCAM Mega
porque pones "sub" en el título si dices que no lo tiene?
esta completa o le faltan los 15 minutos despues del partido ?
@wripe Debe ser la costumbre! @SARASASAN No entiendo, la película esta completa!
VAYAN AL CINE MISERABLES  
Para dejar un comentario Registrate! o.. eres ya usuario? Accede!
Facebook Identi