La grán muralla sub 2016 1080 WEBDL Mega

Bienvenidos a mi nuevo post
La grán muralla sub 2016 1080 WEBDL Mega



The.Great.Wall.2016.1080p.WEB-DL.H264.AC3-EVO [3.40GB][1080p][x264

Año: 2016
Duración: 104 min.
País: China
Idioma: Igles-Chino subtitulos en Español
Género: Acción. Fantástico | Siglo XV. Cine épico. Monstruos
Director: Zhang Yimou
Guion:
Tony Gilroy, Carlo Bernard, Doug Miro (Historia: Max Brooks, Edward Zwick, Marshall Herskovitz)
Música: Ramin Djawadi
Fotografía: Stuart Dryburgh, Zhao Xiaoding
Reparto:
Matt Damon,  Pedro Pascal,  Willem Dafoe,  Andy Lau,  Jing Tian,  Zhang Hanyu, Eddie Peng,  Lu Han,  Kenny Lin,  Ryan Zheng,  Cheney Chen,  Huang Xuan, Karry Wang,  Vicky Yu,  Liu Qiong
Productora:
Coproducción USA-China; China Film Group / LeVision Pictures / Legendary East / Kava Productions / Legendary Pictures / Atlas Entertainment
Mediainfo

Complete name : The.Great.Wall.2016.1080p.WEB-DL.H264.AC3-EVO[PRiME].mkv
Format : Matroska
Format version : Version 4 / Version 2
File size : 3.40 GiB
Duration : 1 h 43 min
Overall bit rate : 4 726 kb/s
Movie name : EVO
Encoded date : UTC 2017-04-12 18:36:13
Writing application : mkvmerge v6.7.0 ('Back to the Ground') 64bit built on Jan 8 2014 15:10:52
Writing library : libebml v1.3.0 + libmatroska v1.4.1

Video
ID : 2
Format : AVC
Format/Info : Advanced Video Codec
Format profile : [email protected]
Format settings, CABAC : Yes
Format settings, ReFrames : 5 frames
Codec ID : V_MPEG4/ISO/AVC
Duration : 1 h 43 min
Bit rate : 4 440 kb/s
Width : 1 916 pixels
Height : 800 pixels
Display aspect ratio : 2.40:1
Frame rate mode : Constant
Frame rate : 23.976 FPS
Color space : YUV
Chroma subsampling : 4:2:0
Bit depth : 8 bits
Scan type : Progressive
Bits/(Pixel*Frame) : 0.121
Stream size : 3.20 GiB (94%)
Language : English
Default : Yes
Forced : No
Color range : Limited
Color primaries : BT.709
Transfer characteristics : BT.709
Matrix coefficients : BT.709

Audio
ID : 1
Format : AC-3
Format/Info : Audio Coding 3
Mode extension : CM (complete main)
Format settings, Endianness : Big
Codec ID : A_AC3
Duration : 1 h 43 min
Bit rate mode : Constant
Bit rate : 192 kb/s
Channel(s) : 2 channels
Channel positions : Front: L R
Sampling rate : 48.0 kHz
Frame rate : 31.250 FPS (1536 spf)
Compression mode : Lossy
Stream size : 142 MiB (4%)
Language : English
Default : Yes
Forced : No

Text
ID : 3
Format : UTF-8
Codec ID : S_TEXT/UTF8
Codec ID/Info : UTF-8 Plain Text
Language : English
Default : Yes

Forced : Yes

Sinopsis
China, siglo XV. Un mercenario inglés (Matt Damon) y otro español (Pedro Pascal) son testigos del misterio que rodea a la construcción de la Gran Muralla China; ambos descubrirán que no se construyó para mantener alejados a los mongoles, sino para algo más peligroso: la mítica muralla ha sido edificada para detener la llegada de monstruos devoradores de carne humana. (FILMAFFINITY)

Críticas
"La historia es claramente lo de menos en esta película de un despliegue visual inusitado, con un colorido vestuario y efectos especiales de primer nivel."
Pablo O. Scholz: Diario Clarín
"A Yimou, que no ha perdido su buen ojo, no le queda otro remedio que hacerse cargo del aspecto visual del film, lo que -ya se sabe- es su especialidad."
Fernando López: Diario La Nación
"Una película de monstruos no es para cualquiera. Hay que empezar por creérsela para que el monstruo asuste, si no no funciona. Y estos no asustan. Y no funciona. (...) una serie de peripecias finales (...) le levantan un poco la nota a una película hasta entonces francamente desafortunada."
Horacio Bernades: Diario Página 12
"La película más cara de la historia del cine chino resulta un carnaval fílmico incoherente y desalmado."
Javier Mattio: Diario La Voz del Interior
"Más allá del reparto y la incesante arremetida de diversos efectos especiales, Zhang y sus guionistas de Hollywood no ofrecen más que una tópica película de monstruos"
Clarence Tsui: The Hollywood Reporter
"No será recordada como la mejor película de Zhang, pero el toque artístico del director está presente en sus barridos panorámicos y su habilidoso uso del color (...) Puntuación: ??? (sobre 5)”
Helen Roxburgh: The Guardian
"Está dirigida con habilidad pero es un espectáculo fantástico corriente, que ensalza la cultura china y la excelencia militar."









Pd. No dejes de comentar!
peliculas - programas
70 Puntos Score: 8.8/10
Visitas: 2915 Favoritos: 4
Ver los usuarios que votaron...
22 Comentarios La grán muralla sub 2016 1080 WEBDL Mega
Es con audio 5.1?
@Proyect4 No fijate en la descripción dice 2 canales  despues cunado salga el Bluray vas a tener una mejor calidad de audio!
@Proyect4  Ahora como es un AC3 puede ser pero en la mediainfo no salio mas datos, no te puedo decir mas!
Si, si ya vi, gracias igual, ahí dejo unos puntines  
@Proyect4 Gracias por los puntos!  
@crismate Gracias por los puntos!  
En 720 no la tienes?
Amigo, hay veces que es mejor no responder. Hay gente que no entiende que es imposible tener calidad 1080 final, o $k o 3D, con audios En latino e Inglés... ¡Cuando es una película que todavía está en en los cines!... En fin, debe ser algo de ignorancia, pero es obvio que no podemos poner una peli que aún no se comercializó en Bluray. No te hagas problema, y no respondas reclamos incoherentes.
@sspatriota 720 no @Claux56 Gracias por pasar a comentar gracias por los puntos!  
@sedahe93 Gracias por los puntos!  
@fredydarko Gracias por los puntos!  
gracias por este aporte estaba esperandola  
@Danlog De nada Gracias por los puntos!  
@lord_belial Gracias por los puntos!  
Cita trucu1235: Mostrar
de nada compadre, la deje descargando hace como una semana y se me olvido jajjaja, hoy la vi y excelente calidad y subtitulos, merecidos los pocos puntitos que puedo dar  
Cuando sale en latino final? me insteresa verla me llamo mucho la atencion desde que la vi en trailers en la TV
@Doux91 No los e! Ya nos enteraremos.
@Dale_Lobo Gracias por los puntos!  
Para dejar un comentario Registrate! o.. eres ya usuario? Accede!
Facebook Identi