Hunt for the Wilderpeople 1080P BRRIP Latino

Hunt for the Wilderpeople 1080P BRRIP Latino

SINOPSIS
Hunt for the Wilderpeople, a la Caza de los Ñumanos: Ricky es un rebelde chico de ciudad de doce años al que no encuentran hogar de acogida para él, salvo una granja en medio de la nada con una pareja; ella encantadora, él, arisco y solitario. Cuando comienza a sentirse a gusto, un problema imprevisto dará pie a una caza humana por el campo neozelandés.
Mas Info:
Hunt for the Wilderpeople, a la Caza de los Ñumanos: Taika Waititi (Lo que hacemos en las sombras) dirige esta comedia basada en el libro Wild Pork & Watercress de Barry Crump. Sam Neill (la serie Peaky Blinders) y Julian Dennison (Aviones de papel) encabezan un reparto en el que también encontramos a Rima Te Wiata (Housebound), Rhys Darby (Lo que hacemos en las sombras), Rachel House (The Dark Horse), Oscar Kightley (Sione’s 2: Unfinished Business), Cohen Holloway (Blood Punch), Stan Walker (Born to Dance), Hamish Parkinson (Ghost Shark 2: Urban Jaws) y Lloyd Scott (Hercules and the Amazon Women).


MEDIAINFO
Format : Matroska
Format version : Version 4 / Version 2
File size : 3.21 GiB
Duration : 1 h 41 min
Overall bit rate : 4 544 kb/s
Movie name : LatinoMegaHD
Encoded date : UTC 2017-04-12 21:51:17
Writing application : mkvmerge v9.9.0 ('Pick Up') 64bit
Writing library : libebml v1.3.4 + libmatroska v1.4.5

Video
ID : 1
Format : AVC
Format/Info : Advanced Video Codec
Format profile : [email protected]
Format settings, CABAC : Yes
Format settings, ReFrames : 4 frames
Codec ID : V_MPEG4/ISO/AVC
Duration : 1 h 41 min
Bit rate : 4 100 kb/s
Width : 1 920 pixels
Height : 808 pixels
Display aspect ratio : 2.40:1
Frame rate mode : Constant
Frame rate : 23.976 (24000/1001) FPS
Original frame rate : 24.000 FPS
Color space : YUV
Chroma subsampling : 4:2:0
Bit depth : 8 bits
Scan type : Progressive
Bits/(Pixel*Frame) : 0.110
Stream size : 2.89 GiB (90%)
Title : LatinoMegaHD
Writing library : x264 core 148 r2708 86b7198
Encoding settings : cabac=1 / ref=3 / deblock=1:-1:-1 / analyse=0x3:0x113 / me=hex / subme=7 / psy=1 / psy_rd=1.00:0.15 / mixed_ref=1 / me_range=16 / chroma_me=1 / trellis=1 / 8x8dct=1 / cqm=0 / deadzone=21,11 / fast_pskip=1 / chroma_qp_offset=-3 / threads=25 / lookahead_threads=4 / sliced_threads=0 / nr=0 / decimate=1 / interlaced=0 / bluray_compat=0 / constrained_intra=0 / bframes=3 / b_pyramid=2 / b_adapt=1 / b_bias=0 / direct=1 / weightb=1 / open_gop=0 / weightp=2 / keyint=240 / keyint_min=24 / scenecut=40 / intra_refresh=0 / rc_lookahead=40 / rc=2pass / mbtree=1 / bitrate=4100 / ratetol=1.0 / qcomp=0.60 / qpmin=0 / qpmax=69 / qpstep=4 / cplxblur=20.0 / qblur=0.5 / vbv_maxrate=62500 / vbv_bufsize=78125 / nal_hrd=none / filler=0 / ip_ratio=1.40 / aq=1:1.00
Default : Yes
Forced : No
Color range : Limited
Color primaries : BT.709
Transfer characteristics : BT.709
Matrix coefficients : BT.709

Audio
ID : 2
Format : AC-3
Format/Info : Audio Coding 3
Mode extension : CM (complete main)
Format settings, Endianness : Big
Codec ID : A_AC3
Duration : 1 h 41 min
Bit rate mode : Constant
Bit rate : 448 kb/s
Channel(s) : 6 channels
Channel positions : Front: L C R, Side: L R, LFE
Sampling rate : 48.0 kHz
Frame rate : 31.250 FPS (1536 spf)
Bit depth : 16 bits
Compression mode : Lossy
Delay relative to video : 8 ms
Stream size : 324 MiB (10%)
Title : Audio Latino
Language : Spanish
Default : Yes
Forced : No
CAPTURAS

Si desean el link suelto envien MP
AvoHD
descargar peliculas - descargar programas
50 Puntos Score: 10/10
Visitas: 1090 Favoritos: 1
Ver los usuarios que votaron...
10 Comentarios Hunt for the Wilderpeople 1080P BRRIP Latino
gracias bro, pero algunas capturas le vendrian bien al post
Excelente aporte , gracias  
ok, excelente bro. lastima que solo te puedo dar 10 puntos.  
@black043 Tranquilo ya publicaré mas aportes exclusivos y espero ver tus punto
@ivanla12 No puedo responderte me dice q debo subir el rango pense q si me escribias podia hacerlo
@AvoHD ah si, ya tienes 90 puntos ahora tienes que publicar otro post para subir de rango y poder mandar MP
@ivanla12 Publicare el audio latino del bluray Hunt for the Wilderpeople esta bien graciosa la peli xD
Para dejar un comentario Registrate! o.. eres ya usuario? Accede!
Facebook Identi