Artykal777
"Los errores no existen. Solo hay cosas que haces, y no haces."

Hitler: El ascenso del mal Latino [1080p]

Hitler: El ascenso del mal [1080p] Latino




Hitler: el ascenso del mal es una miniserie de dos episodios que muestra la llegada de Adolf Hitler al poder. Uno de los temas centrales de la película es la influencia que tuvo Ernst Hanfstaengl sobre Hitler, quien fue ganando espacio en la política de la entonces República de Weimar hasta su consolidación como Führer en 1934. También se muestra como un periodista llamado Fritz Gerlich se opone desde el principio al nacionalsocialismo. Destacan las actuaciones de Peter O'Toole como Hindenburg, Peter Stormare como Ernst Röhm y de Robert Carlyle como Hitler.

El primero parte en 1913, antes del Putsch de Múnich y de la prisión de Landsberg en que un orador llamado Adolf Hitler construye paso a paso su carrera política del nacionalsocialismo, que en un principio capta las simpatías del periodista Fritz Gerlich y así de muchos otros pero cuando se le conocen a fondo las ideas antisemitas y su brutal odio, algunos se transforman en opositores y otros en fieles seguidores para llegar al poder como canciller alemán en 1933.

El segundo capítulo, después de Landsberg, Hitler parte con el apoyo de unos cuantos fieles y de las actuaciones de la Schutzstaffel (SA) de Ernst Röhm que le ayudan a cimentar su ascenso al poder conquistando escaños hasta llegar a oponerse al gobierno de la República de Weimar.

Información de video:

Video
ID                             : 1
Format                         : AVC
Format/Info                    : Advanced Video Codec
Format profile                 : [email protected]
Format settings, CABAC         : Yes
Format settings, ReFrames      : 2 frames
Codec ID                       : V_MPEG4/ISO/AVC
Duration                       : 1 h 28 min
Bit rate                       : 4 500 kb/s
Width                          : 1 920 pixels
Height                         : 1 080 pixels
Display aspect ratio           : 16:9
Frame rate mode                : Constant
Frame rate                     : 25.000 FPS
Color space                    : YUV
Chroma subsampling             : 4:2:0
Bit depth                      : 8 bits
Scan type                      : Progressive
Bits/(Pixel*Frame)             : 0.087
Stream size                    : 2.76 GiB (96%)
Writing library                : x264 core 148 r2721
Default                        : Yes
Forced                         : No

Audio
ID                             : 2
Format                         : MPEG Audio
Format version                 : Version 1
Format profile                 : Layer 3
Codec ID                       : A_MPEG/L3
Codec ID/Hint                  : MP3
Duration                       : 1 h 28 min
Bit rate mode                  : Constant
Bit rate                       : 192 kb/s
Channel(s)                     : 2 channels
Sampling rate                  : 48.0 kHz
Frame rate                     : 41.667 FPS (1152 spf)
Compression mode               : Lossy
Stream size                    : 122 MiB (4%)
Default                        : Yes
Forced                         : No


descargar peliculas - descargar programas
120 Puntos Score: 9.2/10
Visitas: 3238 Favoritos: 7
Ver los usuarios que votaron...
Más del Autor...
No se encontraron más posts
24 Comentarios Hitler: El ascenso del mal Latino [1080p]
Ayuda amigos: Cuando quiero ver los link, hago todo lo necesario y empieza la cuenta regresiva pero al llega a "Y puedes descargar" comienza de nuevo la cuenta y no puedo descargar. Alguien sabe como se soluciona???
Cita Sinsajo59: Mostrar
No cierres la ventanita que te sale.
@Artykal777 +10 Pon algunas capturas!!!
Excelente, lo bajo para unirlo con el idioma español que tengo que es el que me gusto. gracias por compartir  
muchas gracias hace rato la andaba buscando
Cita Jarods: Mostrar
Ya está en Latino, y es el único audio que tiene.
Muchas gracias por tu esfuerzo y dedicacion,se valora mucho...abrazos.
de que año es la peli?
Es la 1a o la 2a parte
gracias esta muy buena la pelicula.la andaba buscando y no la encontraba solo aqui en identi,sabes si la caida alguna vez salio en latino
Cita Sinsajo59: Mostrar
Desactiva tus complementos ya sea: Adblock o safebrowse, asi podrás descargar, saludos
Muchas gracias por el aporte
genial aporte..se lo ve interesante.. me lo llevo muchas gracias
mi estimado, déjame felicitarte, un gran aporte excelente, tenia el dvd se me perdió, de lo mejor gracias.
Cita takelot: Mostrar
2003
Cita chino2109: Mostrar
son ambas
Cita takelot: Mostrar
2003
No sabia que existia pero suena interesante. Gracias!!
gracias amigo, oye no tienes la de hitler la caida en audio latino
Excelente Pelicula
Sin palabras +10
Muy buena peli recomendada, gracias  
Para dejar un comentario Registrate! o.. eres ya usuario? Accede!
Facebook Identi