The Boss Baby (2017)[CAM][MIC] HEVC/H.265

The Boss Baby (2017)[CAM]
depositfiles





Download: http://d pos tfiles.com/files/nlos8c1fd
Micro Size: 283 MB
Password: TBB


General

Format                                   : Matroska
Format version                           : Version 2
File size                                : 283 MiB
Duration                                 : 1 h 26 min
Overall bit rate                         : 456 kb/s
Movie name                               : The Boss Baby (2017)[CAM]_spanish
Encoded date                             : UTC 2017-04-02 20:07:49
Writing application                      : DVDFab 9.2.2.8
Writing library                          : libebml v0.7.8 + libmatroska v0.8.1

Video
ID                                       : 1
Format                                   : HEVC
Format/Info                              : High Efficiency Video Coding
Format profile                           : [email protected]@Main
Codec ID                                 : V_MPEGH/ISO/HEVC
Duration                                 : 1 h 26 min
Bit rate                                 : 319 kb/s
Width                                    : 716 pixels
Height                                   : 352 pixels
Display aspect ratio                     : 2.034
Frame rate mode                          : Constant
Frame rate                               : 29.970 (30000/1001) FPS
Color space                              : YUV
Chroma subsampling                       : 4:2:0
Bit depth                                : 8 bits
Bits/(Pixel*Frame)                       : 0.042
Stream size                              : 198 MiB (70%)
Default                                  : Yes
Forced                                   : No
Color range                              : Limited
Color primaries                          : BT.601 NTSC
Transfer characteristics                 : BT.709
Matrix coefficients                      : BT.601

Audio
ID                                       : 2
Format                                   : AC-3
Format/Info                              : Audio Coding 3
Mode extension                           : CM (complete main)
Format settings, Endianness              : Big
Codec ID                                 : A_AC3
Duration                                 : 1 h 26 min
Bit rate mode                            : Constant
Bit rate                                 : 128 kb/s
Channel(s)                               : 2 channels
Channel positions                        : Front: L R
Sampling rate                            : 48.0 kHz
Frame rate                               : 31.250 FPS (1536 spf)
Compression mode                         : Lossy
Stream size                              : 79.5 MiB (28%)
Language                                 : Spanish
Default                                  : No
Forced                                   : No
descargar peliculas - descargar programas
0 Puntos Score: 0/10
Visitas: 1349 Favoritos: 1
8 Comentarios The Boss Baby (2017)[CAM][MIC] HEVC/H.265
Lamento decirte que la dire que dejaste o esta a medias o  no existe porque no deja descargar
@ SESHU Parece que tienes mucho que aprender. Aprende a usar VPN y Google  

Están desprestigiando el H.265, se inventó para la calidad 4K y ahora lo usan hasta con el Cam.
Cita Sr.Satan: Mostrar
Amigo.... porque no poner el enlace directo o encriptado  ?
Se que me vas a contestar que tengo mucho que aprender !
Pero ..... porque complicarlo , sobre todo viniendo de una persona que sabe tanto como tu ?
Sr.Satan y bag78 parece que los dos chupár el uno al otro, nada de malo con eso a menos que estén fuera del closet
telurico proteccion contra los Bots de internet.
saludos amigo el link  no da obsion a descarga...por favor corrijelo
Para dejar un comentario Registrate! o.. eres ya usuario? Accede!
Facebook Identi