Thundercats 80s Temp1 Vol1

Thundercats 80's Esp/Ing .mkv H.265 DVDrip [Depositfiles]

Format: .mkv (HEVC H265)
Audio: Ing y Esp
Tamaño aproximado para cada episodio: 200MB
Tamaño tota: 6GB


General
Format                                   : Matroska
Format version                           : Version 2
File size                                : 212 MiB
Duration                                 : 22 min 15 s
Overall bit rate                         : 1 333 kb/s
Movie name                               : THUNDERCATS_VOL1_S1_NA_D1.Title2
Encoded date                             : UTC 2015-11-27 06:33:01
Writing application                      : DVDFab 9.2.0.9
Writing library                          : libebml v0.7.8 + libmatroska v0.8.1

Video
ID                                       : 1
Format                                   : HEVC
Format/Info                              : High Efficiency Video Coding
Format profile                           : [email protected]@Main
Codec ID                                 : V_MPEGH/ISO/HEVC
Duration                                 : 22 min 15 s
Bit rate                                 : 1 050 kb/s
Width                                    : 628 pixels
Height                                   : 480 pixels
Display aspect ratio                     : 4:3
Frame rate mode                          : Constant
Frame rate                               : 29.970 (30000/1001) FPS
Color space                              : YUV
Chroma subsampling                       : 4:2:0
Bit depth                                : 8 bits
Bits/(Pixel*Frame)                       : 0.116
Stream size                              : 167 MiB (79%)
Default                                  : Yes
Forced                                   : No
Color range                              : Limited
Color primaries                          : BT.601 NTSC
Transfer characteristics                 : BT.709
Matrix coefficients                      : BT.601

Audio #1 ENGLISH
ID                                       : 2
Format                                   : AC-3
Format/Info                              : Audio Coding 3
Mode extension                           : CM (complete main)
Format settings, Endianness              : Big
Codec ID                                 : A_AC3
Duration                                 : 22 min 15 s
Bit rate mode                            : Constant
Bit rate                                 : 128 kb/s
Channel(s)                               : 1 channel
Channel positions                        : Front: C
Sampling rate                            : 48.0 kHz
Frame rate                               : 31.250 FPS (1536 spf)
Compression mode                         : Lossy
Stream size                              : 20.4 MiB (10%)
Language                                 : English
Default                                  : Yes
Forced                                   : No

Audio #2 LATINO
ID                                       : 3
Format                                   : AC-3
Format/Info                              : Audio Coding 3
Mode extension                           : CM (complete main)
Format settings, Endianness              : Big
Codec ID                                 : A_AC3
Duration                                 : 22 min 15 s
Bit rate mode                            : Constant
Bit rate                                 : 128 kb/s
Channel(s)                               : 1 channel
Channel positions                        : Front: C
Sampling rate                            : 48.0 kHz
Frame rate                               : 31.250 FPS (1536 spf)
Compression mode                         : Lossy
Stream size                              : 20.4 MiB (10%)
Language                                 : Spanish
Default                                  : No
Forced                                   : No


Disco 1de6 http://dep   tfiles.com/folders/OR5Z7GT3U
Disco 2de6 uploading...
Disco 3de6 uploading...
Disco 4de6 uploading...
Disco 5de6 uploading...
Disco 6de6 uploading...




Password: 1q2w3e4r5t6y7u8i9o0p123


descargar peliculas - descargar programas
10 Puntos Score: 10/10
Visitas: 933 Favoritos: 5
Ver los usuarios que votaron...
6 Comentarios Thundercats 80s Temp1 Vol1
gracias!!!!!!!!!
HOLA GRACIAS POR TU APORTE   PERO TENGO UN PROBLEMA , EL LINK NO  LO PUEDO ABRIR
Excelente Cari carnal, Muchas gracias,  oye de casualidad no tienes la de Baby Folies?  
No hay nada amigo, todo está en blanco. A ver si actualizar éste post por favor...
Links caidos?!!! Que paso amigo? Actualiza el post.
Para dejar un comentario Registrate! o.. eres ya usuario? Accede!
Facebook Identi