De mendigo a millonario 1983 1080p DualAudio x264

De mendigo a millonario 1983 1080p DualAudio x264









De Mendigo a Millonario

Trading Places es una película estadounidense de 1983, del género comedia, dirigida por John Landis, protagonizada
por Dan Aykroyd, Eddie Murphy, Jamie Lee Curtis, Ralph Bellamy, Don Ameche, Denholm Elliott y Paul Gleason.
El guion fue escrito por Timothy Harris y Herschel Weingrod.

Ganadora de dos Premios BAFTA 1984 al mejor actor de reparto (Denholm Elliott) y la mejor actriz de reparto (Jamie Lee Curtis).

El usuario @sandatomo la pidio, la encontre aqui mismo pero la baje de mejor calidad, tome el audio del post de @ cesarbbcc y listo. Dual audio, mejor calidad.

Nombre del archivo Original: Trading.Places.1983.1080p.BluRay.x264.YIFY
Peso: 2.1 gb
Formato: MKV
Bitrate: 2456 kb/s


Format                         : Matroska
Format version                 : Version 4 / Version 2
File size                      : 2.00 GiB
Duration                       : 1 h 56 min
Overall bit rate               : 2 456 kb/s
Encoded date                   : UTC 2017-03-28 15:06:29
Writing application            : mkvmerge v9.7.1 ('Pandemonium') 64bit
Writing library                : libebml v1.3.4 + libmatroska v1.4.5

Video
ID                             : 1
Format                         : AVC
Format/Info                    : Advanced Video Codec
Format profile                 : [email protected]
Format settings, CABAC         : Yes
Format settings, ReFrames      : 4 frames
Codec ID                       : V_MPEG4/ISO/AVC
Duration                       : 1 h 56 min
Bit rate                       : 2 169 kb/s
Width                          : 1 912 pixels
Height                         : 1 080 pixels
Display aspect ratio           : 16:9
Frame rate mode                : Constant
Frame rate                     : 23.976 (24000/1001) FPS
Original frame rate            : 23.976 (23976/1000) FPS
Color space                    : YUV
Chroma subsampling             : 4:2:0
Bit depth                      : 8 bits
Scan type                      : Progressive
Bits/(Pixel*Frame)             : 0.044
Stream size                    : 1.76 GiB (88%)
Writing library                : x264 core 123 r2189 35cf912
Default                        : Yes
Forced                         : No
Color range                    : Limited
Color primaries                : BT.709
Matrix coefficients            : BT.709

Audio #1
ID                             : 2
Format                         : MPEG Audio
Format version                 : Version 1
Format profile                 : Layer 3
Mode                           : Joint stereo
Mode extension                 : MS Stereo
Codec ID                       : A_MPEG/L3
Codec ID/Hint                  : MP3
Duration                       : 1 h 56 min
Bit rate mode                  : Constant
Bit rate                       : 192 kb/s
Channel(s)                     : 2 channels
Sampling rate                  : 44.1 kHz
Frame rate                     : 38.281 FPS (1152 spf)
Compression mode               : Lossy
Stream size                    : 160 MiB (8%)
Title                          : Latino
Writing library                : LAME3.99.5
Default                        : Yes
Forced                         : Yes

Audio #2
ID                             : 3
Format                         : AAC
Format/Info                    : Advanced Audio Codec
Format profile                 : LC
Codec ID                       : A_AAC
Duration                       : 1 h 56 min
Bit rate                       : 93.8 kb/s
Channel(s)                     : 2 channels
Channel positions              : Front: L R
Sampling rate                  : 48.0 kHz
Frame rate                     : 46.875 FPS (1024 spf)
Compression mode               : Lossy
Stream size                    : 78.1 MiB (4%)
Language                       : English
Default                        : No
Forced                         : No














Viene con subitulos SRT Integrados.
descargar peliculas - descargar programas
99 Puntos Score: 8.3/10
Visitas: 2754 Favoritos: 9
Ver los usuarios que votaron...
16 Comentarios De mendigo a millonario 1983 1080p DualAudio x264
muy buena , te debo los puntos(apenas recargue, puntuo).
Muy buen clasico.  
Muchas gracias.
Muchas gracias !!
Gran aporte compañero, Saludos
Para dejar un comentario Registrate! o.. eres ya usuario? Accede!
Facebook Identi