Hect65
"4 aportes más, y nada más!!!"
Oops.. Este post tiene los enlaces eliminados!

Identi revisa las denuncias de los usuarios en busca de enlaces eliminados que no dejan descargar los archivos, este mensaje te informa que este post que estas viendo tiene los enlaces eliminados.

Usa el Buscador

Por favor, te recomendamos que uses el buscador para encontrar más alternativas.

Detective Por Error (2005) La - In

  • Categoría: Reciclaje
  • Publicado hace más de 8 meses
                                The Man (2005) 720p
                         



Información de la pelí :




Complete name               : The Man [Detective Por Error] (2005) 720p DualThe Man (2005) 720p WEB-DL x264 [Dual Audio].mkv
Format                      : Matroska
Format version              : Version 4 / Version 2
File size                   : 1.78 GiB
Duration                    : 1h 23mn
Overall bit rate            : 3 059 Kbps
Movie name                  : The Man (2005) 720p WEB-DL x264 [Dual Audio] [ Latino - English - Hindi  ]  Movie
Encoded date                : UTC 2016-08-14 15:21:59
Writing application         : mkvmerge v8.8.0 ('Wind at my back') 64bit
Writing library             : libebml v1.3.3 + libmatroska v1.4.4
DURATION                    : 01:23:12.000000000
NUMBER_OF_FRAMES            : 156000
NUMBER_OF_BYTES             : 319488000
_STATISTICS_WRITING_APP     : mkvmerge v8.8.0 ('Wind at my back') 64bit
_STATISTICS_WRITING_DATE_UT : 2016-08-14 15:21:59
_STATISTICS_TAGS            : BPS DURATION NUMBER_OF_FRAMES NUMBER_OF_BYTES

Video
ID                          : 1
Format                      : AVC
Format/Info                 : Advanced Video Codec
Format profile              : [email protected]
Format settings, CABAC      : Yes
Format settings, ReFrames   : 5 frames
Codec ID                    : V_MPEG4/ISO/AVC
Duration                    : 1h 23mn
Nominal bit rate            : 1 300 Kbps
Width                       : 1 272 pixels
Height                      : 712 pixels
Display aspect ratio        : 16:9
Frame rate mode             : Constant
Frame rate                  : 23.976 fps
Color space                 : YUV
Chroma subsampling          : 4:2:0
Bit depth                   : 8 bits
Scan type                   : Progressive
Bits/(Pixel*Frame)          : 0.060
Title                       : Detective Por Error [ The Man ] ( 2005) 720p
Writing library             : x264 core 146 r2538 121396c
Encoding settings           : cabac=1 / ref=5 / deblock=1:-3:-3 / analyse=0x3:0x133 / me=umh / subme=7 / psy=1 / psy_rd=1.00:0.00 / mixed_ref=1 / me_range=16 / chroma_me=1 / trellis=2 / 8x8dct=1 / cqm=0 / deadzone=21,11 / fast_pskip=1 / chroma_qp_offset=-2 / threads=12 / lookahead_threads=2 / sliced_threads=0 / nr=0 / decimate=1 / interlaced=0 / bluray_compat=0 / constrained_intra=0 / bframes=3 / b_pyramid=2 / b_adapt=1 / b_bias=0 / direct=1 / weightb=1 / open_gop=0 / weightp=2 / keyint=240 / keyint_min=23 / scenecut=40 / intra_refresh=0 / rc_lookahead=40 / rc=2pass / mbtree=1 / bitrate=1300 / ratetol=1.0 / qcomp=0.60 / qpmin=0 / qpmax=69 / qpstep=4 / cplxblur=20.0 / qblur=0.5 / vbv_maxrate=62500 / vbv_bufsize=78125 / nal_hrd=none / filler=0 / ip_ratio=1.40 / aq=1:1.00
Default                     : Yes
Forced                      : No
Color range                 : Limited
Color primaries             : BT.601 NTSC
Transfer characteristics    : BT.601
Matrix coefficients         : BT.601

Audio #1
ID                          : 2
Format                      : AC-3
Format/Info                 : Audio Coding 3
Mode extension              : CM (complete main)
Format settings, Endianness : Big
Codec ID                    : A_AC3
Duration                    : 1h 23mn
Bit rate mode               : Constant
Bit rate                    : 512 Kbps
Channel(s)                  : 6 channels
Channel positions           : Front: L C R, Side: L R, LFE
Sampling rate               : 48.0 KHz
Compression mode            : Lossy
Stream size                 : 305 MiB (17%)
Title                       : Latino AC3
Language                    : Latin
Default                     : Yes
Forced                      : No

Audio #2
ID                          : 3
Format                      : AC-3
Format/Info                 : Audio Coding 3
Mode extension              : CM (complete main)
Format settings, Endianness : Big
Codec ID                    : A_AC3
Duration                    : 1h 23mn
Bit rate mode               : Constant
Bit rate                    : 512 Kbps
Channel(s)                  : 6 channels
Channel positions           : Front: L C R, Side: L R, LFE
Sampling rate               : 48.0 KHz
Compression mode            : Lossy
Stream size                 : 305 MiB (17%)
Title                       : Latino AC3 (Sonido Alto)
Language                    : Latin
Default                     : No
Forced                      : No

Audio #3
ID                          : 4
Format                      : AAC
Format/Info                 : Advanced Audio Codec
Format profile              : LC
Codec ID                    : A_AAC
Duration                    : 1h 23mn
Channel(s)                  : 2 channels
Channel positions           : Front: L R
Sampling rate               : 48.0 KHz
Compression mode            : Lossy
Delay relative to video     : 9ms
Title                       : Inglés AAC
Language                    : English
Default                     : No
Forced                      : No

Audio #4
ID                          : 5
Format                      : AC-3
Format/Info                 : Audio Coding 3
Mode extension              : CM (complete main)
Format settings, Endianness : Big
Codec ID                    : A_AC3
Duration                    : 1h 23mn
Bit rate mode               : Constant
Bit rate                    : 512 Kbps
Channel(s)                  : 6 channels
Channel positions           : Front: L C R, Side: L R, LFE
Sampling rate               : 48.0 KHz
Compression mode            : Lossy
Stream size                 : 305 MiB (17%)
Title                       : Inglés AC3 (Loud Sound) 512kbps
Language                    : English
Default                     : No
Forced                      : No

Audio #5
ID                          : 6
Format                      : MPEG Audio
Format version              : Version 1
Format profile              : Layer 3
Mode                        : Joint stereo
Mode extension              : MS Stereo
Codec ID                    : A_MPEG/L3
Codec ID/Hint               : MP3
Duration                    : 1h 23mn
Bit rate mode               : Constant
Bit rate                    : 128 Kbps
Channel(s)                  : 2 channels
Sampling rate               : 48.0 KHz
Compression mode            : Lossy
Stream size                 : 76.2 MiB (4%)
Title                       : Hindi MP3
Language                    : Hindi
Default                     : No
Forced                      : No

Text #1
ID                          : 7
Format                      : UTF-8
Codec ID                    : S_TEXT/UTF8
Codec ID/Info               : UTF-8 Plain Text
Title                       : Sub.Latino 1
Language                    : Latin
Default                     : No
Forced                      : No

Text #2
ID                          : 8
Format                      : UTF-8
Codec ID                    : S_TEXT/UTF8
Codec ID/Info               : UTF-8 Plain Text
Title                       : Sub.Latino 2
Language                    : Latin
Default                     : No
Forced                      : No

Text #3
ID                          : 9
Format                      : UTF-8
Codec ID                    : S_TEXT/UTF8
Codec ID/Info               : UTF-8 Plain Text
Title                       : Sub.Inglés
Language                    : English
Default                     : No
Forced                      : No








                                                        Password : Ninguno


Nota para los que vayan a descargar este aporte ,por que y en especial va para una página,muy buena,pero, que esta exportando nuestros aportes ''Compucalitv'',ya que como dije antes,los Uploaders,no obtenemos,ningún dinero por estos aportes,pero,la página(Compucalitv),no esta reconociendo de quién fue el aporte que se público en IDENTI ,yo no tengo problemas de que usen lo que hemos compartido en IDENTI, para que ellos obtengan algún beneficio,al contrario,lo que uno pone en la web,para siempre se va aquedar,y eso esta bien para mi,pero ''Compucalitv'' deberia poner quienes son los que aportaron esos aportes sin obetener algún dinero,deberian saber que muchos usuarios ya se dieron cuenta de que lo que estan públicando en su página,es lo que se esta compartiendo en IDENTI,y no nada más en esa página,sino en varios lados.



Ya para terminar, estoy orgulloso y agradecido de saber quienes son los verdaderos Uploaders que hacen de la web sea un lugar donde puedas descargar cosas que tú no podias encontrar antes,gracias a los Uploaders de IDENTI por su gran esfuerzo de compartir,auque haya personas que no lo agradescan.

Este es mi ultimo post, gracias por pasar.



Sin más,espero les sea de su interés.

Saludos.
descargar peliculas - descargar programas
20 Puntos Score: 10/10
Visitas: 505 Favoritos: 1
Ver los usuarios que votaron...
3 Comentarios Detective Por Error (2005) La - In
Gracias por compartir  
@TheLucho A ti por pasar,saludos.
@TheLucho Y Gracias por los 10+.
Para dejar un comentario Registrate! o.. eres ya usuario? Accede!
Facebook Identi