Hect65
"4 aportes más, y nada más!!!"

Masacre en New York (1995) Trial Audio La - In

                               Rumble In The Bronx (1995)



                                              ''Jackie Chan'' In Action



Información de la pelí :






Complete name : Masacre en New York [ Rumble In The Bronx ] (1995)Rumble In The Bronx (1995) BRRip 720p.x264.Trial  Audio :  Latino - Ingles.mkv
Format                      : Matroska
Format version              : Version 4 / Version 2
File size                   : 1.74 GiB
Duration                    : 1h 29mn
Overall bit rate            : 2 781 Kbps
Encoded date                : UTC 2016-07-29 07:06:02
Writing application         : mkvmerge v8.8.0 ('Wind at my back') 64bit
Writing library             : libebml v1.3.3 + libmatroska v1.4.4
DURATION                    : 01:22:01.648000000
NUMBER_OF_FRAMES            : 973
NUMBER_OF_BYTES             : 27271
_STATISTICS_WRITING_APP     : mkvmerge v8.8.0 ('Wind at my back') 64bit
_STATISTICS_WRITING_DATE_UT : 2016-07-29 07:06:02
_STATISTICS_TAGS            : BPS DURATION NUMBER_OF_FRAMES NUMBER_OF_BYTES

Video
ID                          : 1
Format                      : AVC
Format/Info                 : Advanced Video Codec
Format profile              : [email protected]
Format settings, CABAC      : Yes
Format settings, ReFrames   : 5 frames
Codec ID                    : V_MPEG4/ISO/AVC
Duration                    : 1h 29mn
Bit rate                    : 1 500 Kbps
Width                       : 1 280 pixels
Height                      : 534 pixels
Display aspect ratio        : 2.40:1
Frame rate mode             : Constant
Frame rate                  : 23.976 fps
Color space                 : YUV
Chroma subsampling          : 4:2:0
Bit depth                   : 8 bits
Scan type                   : Progressive
Bits/(Pixel*Frame)          : 0.092
Stream size                 : 926 MiB (52%)
Title                       : Rumble In The Bronx
Writing library             : x264 core 148 r2638 7599210
Encoding settings           : cabac=1 / ref=5 / deblock=1:0:0 / analyse=0x3:0x133 / me=umh / subme=10 / psy=1 / psy_rd=1.00:0.00 / mixed_ref=1 / me_range=24 / chroma_me=1 / trellis=2 / 8x8dct=1 / cqm=0 / deadzone=21,11 / fast_pskip=1 / chroma_qp_offset=-2 / threads=6 / lookahead_threads=1 / sliced_threads=0 / nr=0 / decimate=1 / interlaced=0 / bluray_compat=0 / constrained_intra=0 / bframes=3 / b_pyramid=2 / b_adapt=2 / b_bias=0 / direct=3 / weightb=1 / open_gop=0 / weightp=2 / keyint=240 / keyint_min=23 / scenecut=40 / intra_refresh=0 / rc_lookahead=60 / rc=2pass / mbtree=1 / bitrate=1500 / ratetol=1.0 / qcomp=0.60 / qpmin=0 / qpmax=69 / qpstep=4 / cplxblur=20.0 / qblur=0.5 / vbv_maxrate=62500 / vbv_bufsize=78125 / nal_hrd=none / filler=0 / ip_ratio=1.40 / aq=1:1.00
Language                    : Latin
Default                     : Yes
Forced                      : No
DURATION                    : 01:29:32.367000000
NUMBER_OF_FRAMES            : 128808
NUMBER_OF_BYTES             : 1006788947
_STATISTICS_WRITING_APP     : mkvmerge v8.8.0 ('Wind at my back') 64bit
_STATISTICS_WRITING_DATE_UT : 2016-07-29 07:06:02
_STATISTICS_TAGS            : BPS DURATION NUMBER_OF_FRAMES NUMBER_OF_BYTES

Audio #1
ID                          : 2
Format                      : AC-3
Format/Info                 : Audio Coding 3
Mode extension              : CM (complete main)
Format settings, Endianness : Big
Codec ID                    : A_AC3
Duration                    : 1h 29mn
Bit rate mode               : Constant
Bit rate                    : 512 Kbps
Channel(s)                  : 6 channels
Channel positions           : Front: L C R, Side: L R, LFE
Sampling rate               : 48.0 KHz
Compression mode            : Lossy
Stream size                 : 328 MiB (18%)
Title                       : Latino [ Original ]
Language                    : Latin
Default                     : Yes
Forced                      : No

Audio #2
ID                          : 3
Format                      : AC-3
Format/Info                 : Audio Coding 3
Mode extension              : CM (complete main)
Format settings, Endianness : Big
Codec ID                    : A_AC3
Duration                    : 1h 29mn
Bit rate mode               : Constant
Bit rate                    : 384 Kbps
Channel(s)                  : 2 channels
Channel positions           : Front: L R
Sampling rate               : 48.0 KHz
Compression mode            : Lossy
Stream size                 : 246 MiB (14%)
Title                       : Latino 2 [ Redoblaje Latino ]
Language                    : Latin
Default                     : No
Forced                      : Yes

Audio #3
ID                          : 4
Format                      : AC-3
Format/Info                 : Audio Coding 3
Mode extension              : CM (complete main)
Format settings, Endianness : Big
Codec ID                    : A_AC3
Duration                    : 1h 29mn
Bit rate mode               : Constant
Bit rate                    : 384 Kbps
Channel(s)                  : 6 channels
Channel positions           : Front: L C R, Side: L R, LFE
Sampling rate               : 48.0 KHz
Compression mode            : Lossy
Stream size                 : 246 MiB (14%)
Title                       : Inglés
Language                    : English
Default                     : No
Forced                      : No

Text #1
ID                          : 5
Format                      : UTF-8
Codec ID                    : S_TEXT/UTF8
Codec ID/Info               : UTF-8 Plain Text
Title                       : Sub.Latino
Language                    : Latin
Default                     : Yes
Forced                      : No

Text #2
ID                          : 6
Format                      : UTF-8
Codec ID                    : S_TEXT/UTF8
Codec ID/Info               : UTF-8 Plain Text
Title                       : Sub.Inglés
Language                    : English
Default                     : No
Forced                      : No




                              Para descargar, usen MegaDownloader






                                                Password : Ninguno



Nota para los que vayan a descargar este aporte ,por que y en especial va para una página,muy buena,pero, que esta exportando nuestros aportes ''Compucalitv'',ya que como dije antes,los Uploaders,no obtenemos,ningún dinero por estos aportes,pero,la página(Compucalitv),no esta reconociendo de quién fue el aporte que se público en IDENTI ,yo no tengo problemas de que usen lo que hemos compartido en IDENTI, para que ellos obtengan algún beneficio,al contrario,lo que uno pone en la web,para siempre se va aquedar,y eso esta bien para mi,pero ''Compucalitv'' deberia poner quienes son los que aportaron esos aportes sin obtener algún dinero,deberian saber que muchos usuarios ya se dieron cuenta de que lo que estan públicando en su página,es lo que se esta compartiendo en IDENTI,y no nada más en esa página,sino en varios lados.



Ya para terminar, estoy orgulloso y agradecido de saber quienes son los verdaderos Uploaders que hacen de la web sea un lugar donde puedas descargar cosas que tú no podias encontrar antes,gracias a los Uploaders de IDENTI por su gran esfuerzo de compartir,auque haya personas que no lo agradescan.




Saludos y el que guste, aprovechen a descargar,por que estos aportes, los Uploaders no obtenemos ni un centavo, solo los posteamos para compartir.


descargar peliculas - descargar programas
143 Puntos Score: 9.5/10
Visitas: 1915 Favoritos: 3
Ver los usuarios que votaron...
25 Comentarios Masacre en New York (1995) Trial Audio La - In
Muchas gracias por compartirla !!
Otra gran Peli @Hect65, gracias por compartir sigue adelante  
@Hect65 sigues agregando buenos aportes  
hola maestro buen aporte con tanta explicación no entiendo una cosa en que resolución esta al final ¿? buen aporte va +10  
@kanonhjf Hola,Se supone que esta en 720p,y gracias por los 10+.saludos  
Gracias. Buen Aporte.  
Gracias por la película , pero ya lo tengo en 1080p  
@Berlin90 Espero que te sirva el audio latino original,saludos.
@Hect65 amigo que programa utilizas para sincronizar audio ya que hay un latino original para sincronizar legend 1985 latino original  https://openload.co/f/JccbiDobp_M/Legend_1985_lat_original.mp3   hay que cambiarle las fps  
@junior0010 Te envie un MP privado,saludos.
Me encanta Jackie Chan. Muchas gracias!
Me la llevo gracias
Muchas gracias mi amigazo por todos tus aportes son re buenos un abrazo
@Duliori_28  Abrazoos amigazoo,muchas gracias por pasar a ver mis viejos aportes  
Que Buen aporte amigo sin felicitaciones por tan buena aporte y trabajo que esto conlleva.
Para dejar un comentario Registrate! o.. eres ya usuario? Accede!
Facebook Identi