Hect65
"¡¡¡Próximamente!!!"

Armour Of God II 1080p Audio La - In - Ch

Armour Of God [Operation Condor] 1080p Audio La - In - Ch

               



Información de la pelí :



Complete name               : Jackie ChanArmour Of God II; Operation Condor (1991) 1080p Trial Audio Latino-Inglés-ChinoArmour of God II Operation Condor (1991).mkv
Format                      : Matroska
Format version              : Version 4 / Version 2
File size                   : 4.42 GiB
Duration                    : 1h 47mn
Overall bit rate            : 5 890 Kbps
Movie name                  : Armour of God II Operation Condor (1991)
Encoded date                : UTC 2017-03-24 07:40:52
Writing application         : mkvmerge v8.8.0 ('Wind at my back') 64bit
Writing library             : libebml v1.3.3 + libmatroska v1.4.4
DURATION                    : 01:43:03.010000000
NUMBER_OF_FRAMES            : 2792
NUMBER_OF_BYTES             : 7456749
_STATISTICS_WRITING_APP     : mkvmerge v8.8.0 ('Wind at my back') 64bit
_STATISTICS_WRITING_DATE_UT : 2017-03-24 07:40:52
_STATISTICS_TAGS            : BPS DURATION NUMBER_OF_FRAMES NUMBER_OF_BYTES

Video
ID                          : 1
Format                      : AVC
Format/Info                 : Advanced Video Codec
Format profile              : [email protected]
Format settings, CABAC      : Yes
Format settings, ReFrames   : 4 frames
Codec ID                    : V_MPEG4/ISO/AVC
Duration                    : 1h 47mn
Bit rate                    : 4 500 Kbps
Width                       : 1 920 pixels
Height                      : 1 080 pixels
Display aspect ratio        : 16:9
Frame rate mode             : Constant
Frame rate                  : 23.976 fps
Color space                 : YUV
Chroma subsampling          : 4:2:0
Bit depth                   : 8 bits
Scan type                   : Progressive
Bits/(Pixel*Frame)          : 0.091
Stream size                 : 3.27 GiB (74%)
Title                       : Armour of God II Operation Condor (1991)
Writing library             : x264 core 142 r2479 dd79a61
Encoding settings           : cabac=1 / ref=4 / deblock=1:0:0 / analyse=0x3:0x113 / me=umh / subme=9 / psy=1 / psy_rd=1.00:0.00 / mixed_ref=1 / me_range=16 / chroma_me=1 / trellis=1 / 8x8dct=1 / cqm=0 / deadzone=21,11 / fast_pskip=1 / chroma_qp_offset=-2 / threads=12 / lookahead_threads=1 / sliced_threads=0 / nr=0 / decimate=1 / interlaced=0 / bluray_compat=0 / constrained_intra=0 / bframes=3 / b_pyramid=2 / b_adapt=1 / b_bias=0 / direct=1 / weightb=1 / open_gop=0 / weightp=2 / keyint=240 / keyint_min=24 / scenecut=40 / intra_refresh=0 / rc_lookahead=40 / rc=abr / mbtree=1 / bitrate=4500 / ratetol=1.0 / qcomp=0.60 / qpmin=0 / qpmax=69 / qpstep=4 / vbv_maxrate=62500 / vbv_bufsize=78125 / nal_hrd=none / filler=0 / ip_ratio=1.40 / aq=1:1.00
Default                     : Yes
Forced                      : No
Color range                 : Limited
Color primaries             : BT.709
Transfer characteristics    : BT.709
Matrix coefficients         : BT.709
DURATION                    : 01:46:39.727000000
NUMBER_OF_FRAMES            : 153440
NUMBER_OF_BYTES             : 3606790566
_STATISTICS_WRITING_APP     : mkvmerge v8.8.0 ('Wind at my back') 64bit
_STATISTICS_WRITING_DATE_UT : 2017-03-24 07:40:52
_STATISTICS_TAGS            : BPS DURATION NUMBER_OF_FRAMES NUMBER_OF_BYTES

Audio #1
ID                          : 2
Format                      : AC-3
Format/Info                 : Audio Coding 3
Mode extension              : CM (complete main)
Format settings, Endianness : Big
Codec ID                    : A_AC3
Duration                    : 1h 47mn
Bit rate mode               : Constant
Bit rate                    : 320 Kbps
Channel(s)                  : 2 channels
Channel positions           : Front: L R
Sampling rate               : 48.0 KHz
Compression mode            : Lossy
Delay relative to video     : 1s 167ms
Stream size                 : 246 MiB (5%)
Title                       : Audio : Latino [ Blu ray ]
Language                    : Latin
Default                     : Yes
Forced                      : No
DURATION                    : 01:46:38.752000000
NUMBER_OF_FRAMES            : 199961
NUMBER_OF_BYTES             : 511900160
_STATISTICS_WRITING_APP     : mkvmerge v8.8.0 ('Wind at my back') 64bit
_STATISTICS_WRITING_DATE_UT : 2017-03-24 07:40:52
_STATISTICS_TAGS            : BPS DURATION NUMBER_OF_FRAMES NUMBER_OF_BYTES

Audio #2
ID                          : 3
Format                      : AC-3
Format/Info                 : Audio Coding 3
Mode extension              : CM (complete main)
Format settings, Endianness : Big
Codec ID                    : A_AC3
Duration                    : 1h 47mn
Bit rate mode               : Constant
Bit rate                    : 448 Kbps
Channel(s)                  : 2 channels
Channel positions           : Front: L R
Sampling rate               : 48.0 KHz
Compression mode            : Lossy
Delay relative to video     : -5ms
Stream size                 : 344 MiB (8%)
Title                       : Audio : English
Language                    : English
Default                     : No
Forced                      : No
DURATION                    : 01:46:38.784000000
NUMBER_OF_FRAMES            : 199962
NUMBER_OF_BYTES             : 358331904
_STATISTICS_WRITING_APP     : mkvmerge v8.8.0 ('Wind at my back') 64bit
_STATISTICS_WRITING_DATE_UT : 2017-03-24 07:40:52
_STATISTICS_TAGS            : BPS DURATION NUMBER_OF_FRAMES NUMBER_OF_BYTES

Audio #3
ID                          : 4
Format                      : AC-3
Format/Info                 : Audio Coding 3
Mode extension              : CM (complete main)
Format settings, Endianness : Big
Codec ID                    : A_AC3
Duration                    : 1h 47mn
Bit rate mode               : Constant
Bit rate                    : 640 Kbps
Channel(s)                  : 6 channels
Channel positions           : Front: L C R, Side: L R, LFE
Sampling rate               : 48.0 KHz
Compression mode            : Lossy
Delay relative to video     : -5ms
Stream size                 : 492 MiB (11%)
Title                       : Audio :  Chinese
Language                    : Chinese
Default                     : No
Forced                      : No

Text #1
ID                          : 5
Format                      : UTF-8
Codec ID                    : S_TEXT/UTF8
Codec ID/Info               : UTF-8 Plain Text
Title                       : Subt.Español
Language                    : Latin
Default                     : No
Forced                      : No

Text #2
ID                          : 6
Format                      : UTF-8
Codec ID                    : S_TEXT/UTF8
Codec ID/Info               : UTF-8 Plain Text
Title                       : Subt.Inglés
Language                    : English
Default                     : No
Forced                      : No

Text #3
ID                          : 7
Format                      : PGS
Muxing mode                 : zlib
Codec ID                    : S_HDMV/PGS
Codec ID/Info               : Picture based subtitle format used on BDs/HD-DVDs
Title                       : Subt.Inglés 2
Language                    : English
Default                     : No
Forced                      : No




Nota para los que vayan a descargar este aporte ,por que y en especial va para una página,muy buena,pero, que esta exportando nuestros aportes ''Compucalitv'',ya que como dije antes,los Uploaders,no obtenemos,ningún dinero por estos aportes,pero,la página(Compucalitv),no esta reconociendo de quién fue el aporte que se público en IDENTI ,yo no tengo problemas de que usen lo que hemos compartido en IDENTI, para que ellos obtengan algún beneficio,al contrario,lo que uno pone en la web,para siempre se va aquedar,y eso esta bien para mi,pero ''Compucalitv'' deberia poner quienes son los que aportaron esos aportes sin obtener algún dinero,deberian saber que muchos usuarios ya se dieron cuenta de que lo que estan públicando en su página,es lo que se esta compartiendo en IDENTI,y no nada más en esa página,sino en varios lados.



Ya para terminar, estoy orgulloso y agradecido de saber quienes son los verdaderos Uploaders que hacen de la web sea un lugar donde puedas descargar cosas que tú no podias encontrar antes,gracias a los Uploaders de IDENTI por su gran esfuerzo de compartir,auque haya personas que no lo agradescan.








Nota : este aporte lo estoy posteando por que alguien me pidió si tenía el audio de esta pelí en latino,que fue mejor subir el complemento completo.



El audio en latino,no se si será el original, o redoblado.





                                              Para descargar, usen MegaDownloader

  




                                                        Password : Ninguno



Espero que les sea de interés.


Saludos.
peliculas - programas
90 Puntos Score: 9/10
Visitas: 3063 Favoritos: 4
Ver los usuarios que votaron...
32 Comentarios Armour Of God II 1080p Audio La - In - Ch
Que buen aporte no tendra la 1 tambien?? gracias
Excelente aporte. En esta version aparecen las franjas negras?, la estoy buscando sin franjas.
@bambu1912 Hola,si pero el audio lo tengo que conseguir en buena calidad,en cuanto lo tenga,tal vez publiqué lo que estas pidiendo,saludos.  
@Hect65 mil gracias amigo muy amable
@gerapoli Parece que sí,pero esta en buena calidad,saludos.
@bambu1912 Gracias a ti por apasar, saludos,  
Gracias por compartir
@ringooooo Gracias a ti por interesarte en mis aportes,saludos.  
@Hect65 Que aporte bro buenazo, como te comento @bambu1912 si pudes sube la parte 1 en audio latino de la Armadura de Dios, estas pelis son clasicas  
@zenky_316 Gracias por pasar amigo,disculpen si no les contesto en los siguientes minutos instantes,estoy teniendo dificulatdes en conectividad de internet,saludos
@Germlokura Gracias por pasar,saludos.
gracias por el aporte
@HYAKIMARU Igual,gracias por pasar,saludos.
Muchas gracias por compartir,Saludos !!!
muchas gracias amigo... ojala bajes mas aportes de jackie chan en esa calidad son buenasass
 
genial!! gracias  
buenisimos aportes mil gtacias te falto la de todo poderoso dos
@tepinay gracias, la de todopoderoso 2 no la he visto,no se si este buena,saludos.
@pericos gracias a ti por valorar,saludos
@maycarkun que bueno que te haya gustado amigo, .saludos.
Gracias por el aporte, van mis +10... tendrás la de 1981 en 1080p o 720p?
Para dejar un comentario Registrate! o.. eres ya usuario? Accede!
Facebook Identi