Hect65
"¡¡¡Próximamente!!!"

Todo Poderoso (2003) Trial Audio La - In

        Todo Poderoso (2003) Trial Audio La - In


Información de la pelí :





Complete name               : Todo Poderoso [Bruce Almigthy] (2003) LatinoTodo Poderoso (2003) Dual Latino - Inglés 1080p BluRay HD.mkv
Format                      : Matroska
Format version              : Version 4 / Version 2
File size                   : 2.83 GiB
Duration                    : 1h 41mn
Overall bit rate            : 4 010 Kbps
Movie name                  : Bruce Almigthy 2003
Encoded date                : UTC 2017-03-04 14:58:48
Writing application         : mkvmerge v8.8.0 ('Wind at my back') 64bit
Writing library             : libebml v1.3.3 + libmatroska v1.4.4
DURATION                    : 01:34:39.756000000
NUMBER_OF_FRAMES            : 1082
NUMBER_OF_BYTES             : 38501
_STATISTICS_WRITING_APP     : mkvmerge v8.8.0 ('Wind at my back') 64bit
_STATISTICS_WRITING_DATE_UT : 2017-03-04 14:58:48
_STATISTICS_TAGS            : BPS DURATION NUMBER_OF_FRAMES NUMBER_OF_BYTES

Video
ID                          : 1
Format                      : AVC
Format/Info                 : Advanced Video Codec
Format profile              : [email protected]
Format settings, CABAC      : Yes
Format settings, ReFrames   : 4 frames
Codec ID                    : V_MPEG4/ISO/AVC
Duration                    : 1h 41mn
Bit rate                    : 2 500 Kbps
Width                       : 1 920 pixels
Height                      : 1 080 pixels
Display aspect ratio        : 16:9
Frame rate mode             : Constant
Frame rate                  : 23.976 fps
Color space                 : YUV
Chroma subsampling          : 4:2:0
Bit depth                   : 8 bits
Scan type                   : Progressive
Bits/(Pixel*Frame)          : 0.050
Stream size                 : 1.69 GiB (60%)
Title                       : Todo Poderoso [Bruce Almigthy] (2003) 1080p  Latino - Inglés
Writing library             : x264 core 144 r2525M 40bb568
Encoding settings           : cabac=1 / ref=4 / deblock=1:-1:-1 / analyse=0x3:0x113 / me=umh / subme=9 / psy=1 / psy_rd=1.00:0.15 / mixed_ref=1 / me_range=24 / chroma_me=1 / trellis=2 / 8x8dct=1 / cqm=0 / deadzone=21,11 / fast_pskip=1 / chroma_qp_offset=-3 / threads=32 / lookahead_threads=4 / sliced_threads=0 / nr=0 / decimate=1 / interlaced=0 / bluray_compat=0 / constrained_intra=0 / bframes=3 / b_pyramid=2 / b_adapt=1 / b_bias=0 / direct=1 / weightb=1 / open_gop=0 / weightp=2 / keyint=250 / keyint_min=25 / scenecut=40 / intra_refresh=0 / rc_lookahead=50 / rc=2pass / mbtree=1 / bitrate=2500 / ratetol=1.0 / qcomp=0.60 / qpmin=0 / qpmax=69 / qpstep=4 / cplxblur=20.0 / qblur=0.5 / vbv_maxrate=31250 / vbv_bufsize=31250 / nal_hrd=none / filler=0 / ip_ratio=1.40 / aq=3:1.00
Default                     : Yes
Forced                      : No

Audio #1
ID                          : 2
Format                      : AC-3
Format/Info                 : Audio Coding 3
Mode extension              : CM (complete main)
Format settings, Endianness : Big
Codec ID                    : A_AC3
Duration                    : 1h 41mn
Bit rate mode               : Constant
Bit rate                    : 512 Kbps
Channel(s)                  : 6 channels
Channel positions           : Front: L C R, Side: L R, LFE
Sampling rate               : 48.0 KHz
Compression mode            : Lossy
Stream size                 : 370 MiB (13%)
Title                       : Latino 1 [ Doblaje usado para Blu Ray]
Language                    : Latin
Default                     : Yes
Forced                      : No

Audio #2
ID                          : 3
Format                      : AC-3
Format/Info                 : Audio Coding 3
Mode extension              : CM (complete main)
Format settings, Endianness : Big
Codec ID                    : A_AC3
Duration                    : 1h 41mn
Bit rate mode               : Constant
Bit rate                    : 512 Kbps
Channel(s)                  : 6 channels
Channel positions           : Front: L C R, Side: L R, LFE
Sampling rate               : 48.0 KHz
Compression mode            : Lossy
Stream size                 : 370 MiB (13%)
Title                       : Latino 2 [Doblaje usado en la TV]
Language                    : Latin
Default                     : No
Forced                      : No

Audio #3
ID                          : 4
Format                      : AC-3
Format/Info                 : Audio Coding 3
Mode extension              : CM (complete main)
Format settings, Endianness : Big
Codec ID                    : A_AC3
Duration                    : 1h 41mn
Bit rate mode               : Constant
Bit rate                    : 512 Kbps
Channel(s)                  : 6 channels
Channel positions           : Front: L C R, Side: L R, LFE
Sampling rate               : 48.0 KHz
Compression mode            : Lossy
Stream size                 : 370 MiB (13%)
Title                       : English
Language                    : English
Default                     : No
Forced                      : No

Text #1
ID                          : 5
Format                      : UTF-8
Codec ID                    : S_TEXT/UTF8
Codec ID/Info               : UTF-8 Plain Text
Title                       : Subt.Español
Language                    : Latin
Default                     : No
Forced                      : No

Text #2
ID                          : 6
Format                      : UTF-8
Codec ID                    : S_TEXT/UTF8
Codec ID/Info               : UTF-8 Plain Text
Title                       : Subt.Inglés
Language                    : English
Default                     : No
Forced                      : No



                                                  Para descargar, usen MegaDownloader





                                                                                   Sin Password




Nota para los que vayan a descargar este aporte ,por que y en especial va para una página,muy buena,pero, que esta exportando nuestros aportes ''Compucalitv'',ya que como dije antes,los Uploaders,no obtenemos,ningún dinero por estos aportes,pero,la página(Compucalitv),no esta reconociendo de quién fue el aporte que se público en IDENTI ,yo no tengo problemas de que usen lo que hemos compartido en IDENTI, para que ellos obtengan algún beneficio,al contrario,lo que uno pone en la web,para siempre se va aquedar,y eso esta bien para mi,pero ''Compucalitv'' deberia poner quienes son los que aportaron esos aportes sin obtener algún dinero,deberian saber que muchos usuarios ya se dieron cuenta de que lo que estan públicando en su página,es lo que se esta compartiendo en IDENTI,y no nada más en esa página,sino en varios lados.



Ya para terminar, estoy orgulloso y agradecido de saber quienes son los verdaderos Uploaders que hacen de la web sea un lugar donde puedas descargar cosas que tú no podias encontrar antes,gracias a los Uploaders de IDENTI por su gran esfuerzo de compartir,auque haya personas que no lo agradescan.





                                      '' Aporte Resubido''




Sin más,espero que les sea de su interés



Saludos.
peliculas - programas
84 Puntos Score: 9.3/10
Visitas: 1184 Favoritos: 4
Ver los usuarios que votaron...
16 Comentarios Todo Poderoso (2003) Trial Audio La - In
No sabía que tenía dos doblajes latino así que a bajar, gracias
@chitio2010 Ni,yo sabia,saludos,gracias por pasar.  
uhh que bien, la primera que vi en dvd era un audio más gracioso, luego descargue en 720p y el latino distinto capaz porque era BRrip. Éste reemplazara ambos casos
@AleZabSa Gracias por pasar amigo,disculpen si no les contesto en los siguientes minutos instantes,estoy teniendo dificulatdes en conectividad de internet,saludos
muchas gracias tenia ganas de ver esta peli hace rato saludos
@AleZabSa si lastima es lo mismo que me paso, pero deja te digo que la del dvd también era el mismo doblaje pero con  las frases distintas, donde aun lo pasan con el audio meramente original es en el dish o direc tv igual pasa con la película de RAT RACE solo en esas 2 compañías de cable he visto que pasan los audios originales, lastima que no tenia como grabar cuando tuve dish. @Hect65 gracias por la peli en esta calidad
@Master_100 Gracias por pasar,saludos
excelente aporte amigo de casualidada podras subirla pelicula the family man con los doblajes latinos de ante mano gracias
@jogabsa198 Veré amigo,lo tendre presente,saludos.
muy buen aporte   .....no tendras la de este cuerpo no es mio o la novia de chucky con el doblaje de TV  
@amistad Uhh ,dejame ver amigo,creo que la van a pasar en la tv,pero no estoy seguro,pero te aseguro que voy a grabar e audio que pides y  continuación,publicare la pelí saludos,
@amistad Gracias por los 10+
@Eemabd A ti por pasar,saludos
Cita Hect65: Mostrar
te lo agradesco mucho...seria genial tenerlas con el doblaje neutro ya que la version de dvd trae modismos de mexico df....y asi no me agrado mucho  
Para dejar un comentario Registrate! o.. eres ya usuario? Accede!
Facebook Identi