Hect65
"4 aportes más, y nada más!!!"

Universal Soldier (1992) Trial Audio La - In

                            Universal Soldier (1992)

                               '' Aporte Resubido''






                                                                                               Argumento




Luc Deveraux (Van Damme) y Andrew Scott (Lundgren) son dos soldados americanos que se encuentran sirviendo en la guerra de Vietnam en 1969. Cuando Deveraux interfiere con la masacre de Scott de un pueblo inocente, terminan por asesinarse el uno al otro. Marcados como "desaparecidos en combate", en realidad son congelados y enviados a una instalación de alto secreto, donde un equipo de científicos dirigido por el coronel Perry, junto con otros especímenes a seleccionar, son convertidos en súper soldados conocidos como "UniSol".
Mientras ayuda a frustrar un secuestro terrorista de la gigante presa McKinley, Deveraux comienza a tener regresiones de su vida anterior. El cada vez más humano Devreux hace equipo con la reportera de televisión Verónica Roberts, mientras que son perseguidos por Scott, los "UniSols" y Perry. La policía logra capturar a Verónica y a Deveraux, pero solo el tiempo suficiente para que Scott los localice. Después de una persecución, creyeron haber acabado con Scott en un accidente de camión. Verónica ayuda a Deveraux a llegar a casa de sus padres en Louisiana, sólo para que Scott lo alcance para una última y brutal confrontación.



Información de la Pelí :


Complete name               : Soldado Universal (1992)Soldado Universal (1992) 1080p  [Trial Audio Latino - Inglés ] Blu Ray HD .mkv
Format                      : Matroska
Format version              : Version 4 / Version 2
File size                   : 2.85 GiB
Duration                    : 1h 43mn
Overall bit rate            : 3 944 Kbps
Movie name                  : Universal Soldier (1992) 1080p [ Dual Latino - Inglés ] Blu Ray HD
Encoded date                : UTC 2017-03-23 06:38:07
Writing application         : mkvmerge v8.8.0 ('Wind at my back') 64bit
Writing library             : libebml v1.3.3 + libmatroska v1.4.4
DURATION                    : 01:36:06.317000000
NUMBER_OF_FRAMES            : 914
NUMBER_OF_BYTES             : 30796
_STATISTICS_WRITING_APP     : mkvmerge v8.8.0 ('Wind at my back') 64bit
_STATISTICS_WRITING_DATE_UT : 2017-03-23 06:38:07
_STATISTICS_TAGS            : BPS DURATION NUMBER_OF_FRAMES NUMBER_OF_BYTES

Video
ID                          : 1
Format                      : AVC
Format/Info                 : Advanced Video Codec
Format profile              : [email protected]
Format settings, CABAC      : Yes
Format settings, ReFrames   : 5 frames
Codec ID                    : V_MPEG4/ISO/AVC
Duration                    : 1h 43mn
Bit rate                    : 1 901 Kbps
Width                       : 1 920 pixels
Height                      : 818 pixels
Display aspect ratio        : 2.35:1
Frame rate mode             : Constant
Frame rate                  : 24.000 fps
Color space                 : YUV
Chroma subsampling          : 4:2:0
Bit depth                   : 8 bits
Scan type                   : Progressive
Bits/(Pixel*Frame)          : 0.050
Stream size                 : 1.32 GiB (46%)
Title                       : Universal Soldier (1992)
Writing library             : x264 core 129 r2245 bc13772
Encoding settings           : cabac=1 / ref=5 / deblock=1:-1:-1 / analyse=0x3:0x133 / me=umh / subme=9 / psy=1 / psy_rd=1.00:0.15 / mixed_ref=1 / me_range=16 / chroma_me=1 / trellis=2 / 8x8dct=1 / cqm=0 / deadzone=21,11 / fast_pskip=1 / chroma_qp_offset=-3 / threads=12 / lookahead_threads=2 / sliced_threads=0 / nr=0 / decimate=1 / interlaced=0 / bluray_compat=0 / constrained_intra=0 / bframes=3 / b_pyramid=2 / b_adapt=2 / b_bias=0 / direct=3 / weightb=1 / open_gop=0 / weightp=2 / keyint=240 / keyint_min=24 / scenecut=40 / intra_refresh=0 / rc_lookahead=60 / rc=2pass / mbtree=1 / bitrate=1901 / ratetol=1.0 / qcomp=0.60 / qpmin=10 / qpmax=51 / qpstep=4 / cplxblur=20.0 / qblur=0.5 / ip_ratio=1.40 / aq=1:1.00
Default                     : Yes
Forced                      : No

Audio #1
ID                          : 2
Format                      : AC-3
Format/Info                 : Audio Coding 3
Mode extension              : CM (complete main)
Format settings, Endianness : Big
Codec ID                    : A_AC3
Duration                    : 1h 43mn
Bit rate mode               : Constant
Bit rate                    : 512 Kbps
Channel(s)                  : 6 channels
Channel positions           : Front: L C R, Side: L R, LFE
Sampling rate               : 48.0 KHz
Compression mode            : Lossy
Stream size                 : 379 MiB (13%)
Title                       : Latino [ Audio Original ] AC3 5.1
Language                    : Latin
Default                     : Yes
Forced                      : No

Audio #2
ID                          : 3
Format                      : AC-3
Format/Info                 : Audio Coding 3
Mode extension              : CM (complete main)
Format settings, Endianness : Big
Codec ID                    : A_AC3
Duration                    : 1h 43mn
Bit rate mode               : Constant
Bit rate                    : 512 Kbps
Channel(s)                  : 6 channels
Channel positions           : Front: L C R, Side: L R, LFE
Sampling rate               : 48.0 KHz
Compression mode            : Lossy
Stream size                 : 379 MiB (13%)
Title                       : Latino [ Audio Original de DVD ]
Language                    : Latin
Default                     : No
Forced                      : No

Audio #3
ID                          : 4
Format                      : AC-3
Format/Info                 : Audio Coding 3
Mode extension              : CM (complete main)
Format settings, Endianness : Big
Codec ID                    : A_AC3
Duration                    : 1h 43mn
Bit rate mode               : Constant
Bit rate                    : 512 Kbps
Channel(s)                  : 6 channels
Channel positions           : Front: L C R, Side: L R, LFE
Sampling rate               : 48.0 KHz
Compression mode            : Lossy
Stream size                 : 379 MiB (13%)
Title                       : Audio Latino 2 [  Redoblaje  Latino ] AC3 5.1
Language                    : Latin
Default                     : No
Forced                      : No

Audio #4
ID                          : 5
Format                      : AC-3
Format/Info                 : Audio Coding 3
Mode extension              : CM (complete main)
Format settings, Endianness : Big
Codec ID                    : A_AC3
Duration                    : 1h 43mn
Bit rate mode               : Constant
Bit rate                    : 512 Kbps
Channel(s)                  : 6 channels
Channel positions           : Front: L C R, Side: L R, LFE
Sampling rate               : 48.0 KHz
Compression mode            : Lossy
Stream size                 : 379 MiB (13%)
Title                       : Audio English AC3 5.1
Language                    : English
Default                     : No
Forced                      : No

Text #1
ID                          : 6
Format                      : UTF-8
Codec ID                    : S_TEXT/UTF8
Codec ID/Info               : UTF-8 Plain Text
Title                       : Subt. Latino
Language                    : Latin
Default                     : No
Forced                      : No

Text #2
ID                          : 7
Format                      : UTF-8
Codec ID                    : S_TEXT/UTF8
Codec ID/Info               : UTF-8 Plain Text
Title                       : Subt. English
Language                    : English
Default                     : No
Forced                      : No



                             Para descargar, usen MegaDownloader








                                                         
                                                                       Password : Ninguno



Nota para los que vayan a descargar este aporte ,por que y en especial va para una página,muy buena,pero, que esta exportando nuestros aportes ''Compucalitv'',ya que como dije antes,los Uploaders,no obtenemos,ningún dinero por estos aportes,pero,la página(Compucalitv),no esta reconociendo de quién fue el aporte que se público en IDENTI ,yo no tengo problemas de que usen lo que hemos compartido en IDENTI, para que ellos obtengan algún beneficio,al contrario,lo que uno pone en la web,para siempre se va aquedar,y eso esta bien para mi,pero ''Compucalitv'' deberia poner quienes son los que aportaron esos aportes sin obtener algún dinero,deberian saber que muchos usuarios ya se dieron cuenta de que lo que estan públicando en su página,es lo que se esta compartiendo en IDENTI,y no nada más en esa página,sino en varios lados.



Ya para terminar, estoy orgulloso y agradecido de saber quienes son los verdaderos Uploaders que hacen de la web sea un lugar donde puedas descargar cosas que tú no podias encontrar antes,gracias a los Uploaders de IDENTI por su gran esfuerzo de compartir,auque haya personas que no lo agradescan.



Nota: El Audio Original de doblaje al Latino no es fácil de obtener,y la sincronización tampoco lo fue,para ello se requirió ingenio y paciencia,así que les mande unas muestras pequeñas (imágenes) una parte del proceso de sincronización del audio, que va junto, dentro de la carpeta donde esta situado el video.


Bueno,el que guste, aprovechen en descargar la pelí por que no se sabe si  vayan a eliminar el post o el enlace, ya que no es fácil de hallar el material,de hacer y de subir el proyecto, todo eso se lleva tiempo y esfuerzo.



Sin Más,espero que les sea de interés  


Saludos a todos.
descargar peliculas - descargar programas
115 Puntos Score: 9.6/10
Visitas: 1237 Favoritos: 4
Ver los usuarios que votaron...
39 Comentarios Universal Soldier (1992) Trial Audio La - In
gracias amigo por tu esfuerso
@tepinay Gracias por pasar amigo
Que genial @Hect65 una pelicula buenaza, sigue con estos post
Ya la tengo con los dos doblajes pero se agradece el tiempo y esfuerzo por compartir
@zenky_316 Hola amigo,¿que hay?ayer estaba inactivo en IDENTI,por la razón de que estaba sincronizando  la pelicula espero que te guste,saludos.
@epalada Gracias por pasar,saludos  
@Hect65 mira tu tendras el doblaje latino original o los tres latinos de esta https://youtu.be/BGD-DBcSLUg
@junior0010 Déjame ver,es  '' La Armadura De Dios II [ Operación Condor ] 1991  ? Si es esa si  la tenga.
@junior0010 Tengo la peli,pero no se si sea el audio latino original.
@junior0010 Hola,mira,acabo de publicar esta pelí,si te intéresa esta en latino,saludos.
Tiene incluido el audio del doblaje Argentino?
@cergio El doblaje latino original de esta pelí fue hecho en Argentina, y si lo tiene ,saludos.
@Hect65 lo se.. ya la bajare...la tenia pero sin el audio arg sincronizado
Muchas gracias, se aprecia mucho tu esfuerzo
@DarkKaiser Gracias por pasar amigo,disculpen si no les contesto en los siguientes minutos instantes,estoy teniendo dificulatdes en conectividad de internet,saludos
@Hect65 si tengo un internet muy lento pero gracias eh bajado todos tus aportes meje de morado pero lo je bajado gracias de nuevo  
@junior0010 Gracias por interesarte en mis posts,vere o tratare de obtener algunos audio que me pedistes,solo que no te prometo nada,pero lo voy a intentar,saludos
@Hect65 has lo que puedas y gracias  
Muchas gracias, muy buenos actores y excelente aporte!
muchas gracias
amigo excelente aporte, de casualidad tenes leyendas de pasión con el audio latino de la tv. gracias
@Biasetti Uhh.no,pero lo tendre en cuenta, asi se llama, es una peli o que es?
Es una pelicula, en ingles su nombre es Legends of the Fall. Muchas gracias. Anthony Hopkins y Brad Pitt 1994.
@Biasetti Gracias por responder,si la llego a conseguir no dudes en que la publicare o te mandaria el enlace por MP,saludos :up
los enlaces no sirven de esta pelicula o estan muertos
@junior0010 si estan en linea, a ver dime si puedes descargarla ahora,usa megadownloader ,si no, te envio un mp
Muchas Gracias Amigo   Pregunta: Que Tuene De Diferente El Audio Latino Original AC3 5.1 Y El Audio Latino Original De DVD Cual Es Mejor
@Juniors0 Hola amigo,que tal,pues mira,'' El Audio Latino Original AC3 5.1'' lo grabe desde el canal ''Space'',en mi opinión,se escucha mas optimo que del dvd,aunque se escucha igual de bien,pero la diferencia es que ''Audio Latino Original AC3 5.1'' se eschuca como lo veías en TV.si me explicó. ,cuálquier duda solo comentala,saludos
Para dejar un comentario Registrate! o.. eres ya usuario? Accede!
Facebook Identi