nickydan
"HERE Heavy"

Gantz (2004) WEB-DL 720p 26/26 Dual Latino Japonés

Gantz (2004) WEB-DL 720p 26/26 Dual Latino Japonés





SINOPSIS

Serie de TV (2004). 2 temporadas. 26 episodios. Kei Kurono es un estudiante rebelde que no le presta mucha importancia a su alrededor. Estando en el metro, se percata que un mendigo en estado de ebriedad se cae en los rieles, pero no va en su ayuda. En cambio, Masaru Kato, un amigo de la infancia de Kei, decide hacerlo. Kato reconoce a Kei, tras años de no haberse visto, y Kei no tiene otra opción que también ir para ayudarlo. Cuando logran salvar al mendigo, se dan cuenta que se acerca un tren sin saber que era un expreso y son atropellados. Instantes después, se encuentran los dos en una habitación, con una esfera negra llamada Gantz, en la que les informa que “sus vidas son controladas por él y tienen que asesinar a seres alienígenas para poder seguir viviendo”. 26 capítulos (13 por temporada).




FICHA TÉCNICA
TÍTULO ORIGINAL: Gantsu (Gantz / Gantz: ~2nd Stage~) (TV Series)
AÑO: 2004
DURACIÓN: 25 min.
PAÍS: Japón
DIRECTOR: Ichirô Itano, Hiroya Oku (Creator)
GUIÓN: Masashi Sogo (Cómic: Hiroya Oku)
FOTOGRAFÍA: Animation
REPARTO: Animation
PRODUCTORA: Gonzo Digimation / Fuji TV
GÉNERO: Serie de TV. Animación. Ciencia ficción. Acción | Monstruos. Extraterrestres. Manga. Gore. Animación para adultos. Action, Alien, Angst, Ecchi, Gunfights, Horror, Large breasts, Manga, Science Fiction, Seinen, Sex, Tragedy, Violence, Virtual Reality, Action, Drama, Psychological, Sci-Fi, Supernatural

Gantz: Serie Completa (2004)
x264 | 8.53 GB  Audios: Español Latino,  Japonés |

Subtítulos: Español | Animación | 2004


Nombre: Gantz
Calidad: WEB-DL 720p
Resolucion: 1280x720
Codec: h.264 8Bits
Aspect ratio: 16:9 Modificable
Formato: MKV

300 - 350 Mb aprox.
Framerate: 23.976 Fps
Audio 1: Latino Codec: MP3 192Kbps
Audio 2: Japones Codec: AC3
Peso:8.53 GB




General

Complete name               : Gantz - 01.mkv
Format                      : Matroska
Format version              : Version 4 / Version 2
File size                   : 331 MiB
Duration                    : 22mn 50s
Overall bit rate            : 2 024 Kbps
Encoded date                : UTC 2014-07-23 17:54:44
Writing application         : mkvmerge v6.6.0 ('The Edge Of The In Between') built on Dec  1 2013 17:55:00
Writing library             : libebml v1.3.0 + libmatroska v1.4.1

Video
ID                          : 1
Format                      : AVC
Format/Info                 : Advanced Video Codec
Format profile              : [email protected]
Format settings, CABAC      : Yes
Format settings, ReFrames   : 4 frames
Codec ID                    : V_MPEG4/ISO/AVC
Duration                    : 22mn 50s
Bit rate                    : 1 636 Kbps
Width                       : 1 280 pixels
Height                      : 720 pixels
Display aspect ratio        : 16:9
Frame rate mode             : Constant
Frame rate                  : 23.976 fps
Color space                 : YUV
Chroma subsampling          : 4:2:0
Bit depth                   : 8 bits
Scan type                   : Progressive
Bits/(Pixel*Frame)          : 0.074
Stream size                 : 261 MiB (79%)
Writing library             : x264 core 93 r1538bm bd72d46

Default                     : Yes
Forced                      : No

Audio #1
ID                          : 2
Format                      : MPEG Audio
Format version              : Version 1
Format profile              : Layer 3
Codec ID                    : A_MPEG/L3
Codec ID/Hint               : MP3
Duration                    : 22mn 50s
Bit rate mode               : Constant
Bit rate                    : 192 Kbps
Channel(s)                  : 2 channels
Sampling rate               : 48.0 KHz
Compression mode            : Lossy
Stream size                 : 31.4 MiB (9%)
Default                     : Yes
Forced                      : No

Audio #2
ID                          : 3
Format                      : ACC Audio
Format version              : Version 1
Format profile              : Layer 3
Codec ID/Hint               : ACC
Duration                    : 22mn 50s
Bit rate mode               : Constant
Bit rate                    : 192 Kbps
Channel(s)                  : 2 channels
Sampling rate               : 48.0 KHz
Compression mode            : Lossy
Stream size                 : 31.4 MiB (9%)
Default                     : No
Forced                      : No














ENLACES






DLC




link de la carpeta

peliculas - programas
135 Puntos Score: 9/10
Visitas: 2110 Favoritos: 14
Ver los usuarios que votaron...
25 Comentarios Gantz (2004) WEB-DL 720p 26/26 Dual Latino Japonés
nickydan muchas gracias por el oporte... pero queria saber que si tenes tambien la version en ingles...
@Mikeybone no en ingles no explotan mis oidos un anime en ingles
QUE PEDAZO DE APORTE!! muchas gracias   +10 es poco para lo que puedo dar. se agradece mucho
Una pregunta es 720p oficial o upscaled se ya exist
@DARKLUIS10 es un HD DVD box Japones de 960 X 720 pasado a 1280 x720
pero sin estirar
Ah ok esta versión tiñe mas calidad ok entiendo gracias
@DARKLUIS10  [TK] Gantz [DVD] [720p] [x264] [LATiNO-JAP]
No entiendo lo que me dices esta es la version de TK o otra version
@DARKLUIS10 si esa version y ya no existe en esa pagina luego la subio intercambios virtuales
http://www.intercambiosvirtuales.org/anime/gantz-2004-espanol-latino-castellano-japones
gracias espero que algún día salgan los blueray deb esta serie
Buenisima Gracias por tremenda calidad! Tienes los subtitulos es para tenerla aun mas completa!  
@nickydan
Cita nickydan: Mostrar
bueno pero si muchas gracias por contestarme..
hola gran aporte me puedes pasar los sub del capitulo 22 al 26
@ivan753 estan en la descarga
pero unos q esten mejor solo me faltan el 23,24
gracias, me parece que mi ñaño quería esta manga, ya toca...
+6
saludos
@nickydan , los capitulos están SIN CENSURA ?
Para dejar un comentario Registrate! o.. eres ya usuario? Accede!
Facebook Identi