Hect65
"11 aportes más y nos vemos el próximo año !!! :)"

Jumanji 1995 1080p Trial Audio ''Latino - Inglés''

                                                      Jumanji 1995 1080p


                               
                                                     



                                                 

La película empieza en 1869, cuando dos chicos entierran un cofre cerca de Keene, Nueva Hampshire, preocupados de deshacerse de su contenido y de que éste nunca sea hallado por nadie, pero si alguien lo encuentra le piden a Dios que se apiade de su alma.
Un siglo después, en 1969, un niño de 12 años, Alan Parrish (Adam Hann-Byrd), huye de un grupo de chicos y entra a la fábrica de calzados de su padre, Sam Parrish y se encuentra con su amigo Carl Bentley, un empleado de su padre quien le muestra un nuevo diseño de zapato deportivo suyo. Alan daña accidentalmente una máquina con el prototipo de zapatilla de deporte que Carl esperaba presentar a Sam. Cuando descubre lo sucedido despide a Carl.
Fuera de la fábrica, Alan se encuentra con la pandilla de chicos que lo seguía, los cuales lo golpean y le roban su bicicleta. Alan empieza a escuchar sonidos de tambores tribales en una obra de construcción cercana y encuentra el cofre enterrado, que contiene un juego de mesa, que en realidad es mágico, llamado Jumanji.


Información de la pelí ;



Format                      : Matroska
Format version              : Version 4 / Version 2
File size                   : 3.05 GiB
Duration                    : 1h 44mn
Overall bit rate            : 4 188 Kbps
Movie name                  : Jumanji (1995) 1080p
Encoded date                : UTC 2017-03-20 06:42:50
Writing application         : mkvmerge v8.8.0 ('Wind at my back') 64bit
Writing library             : libebml v1.3.3 + libmatroska v1.4.4
DURATION                    : 01:37:14.828000000
NUMBER_OF_FRAMES            : 975
NUMBER_OF_BYTES             : 30156
_STATISTICS_WRITING_APP     : mkvmerge v8.8.0 ('Wind at my back') 64bit
_STATISTICS_WRITING_DATE_UT : 2017-03-20 06:42:50
_STATISTICS_TAGS            : BPS DURATION NUMBER_OF_FRAMES NUMBER_OF_BYTES

Video
ID                          : 1
Format                      : AVC
Format/Info                 : Advanced Video Codec
Format profile              : [email protected]
Format settings, CABAC      : Yes
Format settings, ReFrames   : 1 frame
Format settings, GOP        : M=1, N=20
Codec ID                    : V_MPEG4/ISO/AVC
Bit rate                    : 3 000 Kbps
Width                       : 1 920 pixels
Height                      : 1 080 pixels
Display aspect ratio        : 16:9
Frame rate mode             : Variable
Original frame rate         : 23.976 fps
Color space                 : YUV
Chroma subsampling          : 4:2:0
Bit depth                   : 8 bits
Scan type                   : Progressive
Bits/(Pixel*Frame)          : 0.060
Title                       : Jumanji (1995)
Writing library             : x264 core 142
Encoding settings           : cabac=1 / ref=1 / deblock=1:0:0 / analyse=0x1:0x111 / me=umh / subme=6 / psy=0 / mixed_ref=0 / me_range=12 / chroma_me=1 / trellis=0 / 8x8dct=0 / cqm=0 / deadzone=21,11 / fast_pskip=1 / chroma_qp_offset=0 / threads=12 / lookahead_threads=2 / sliced_threads=0 / nr=0 / decimate=1 / interlaced=0 / bluray_compat=0 / constrained_intra=0 / bframes=0 / weightp=0 / keyint=24 / keyint_min=13 / scenecut=40 / intra_refresh=0 / rc=abr / mbtree=0 / bitrate=3000 / ratetol=1.0 / qcomp=0.60 / qpmin=0 / qpmax=69 / qpstep=4 / ip_ratio=1.40 / aq=1:1.00
Default                     : Yes
Forced                      : No
Color range                 : Limited
Color primaries             : BT.709
Transfer characteristics    : BT.709
Matrix coefficients         : BT.709

Audio #1
ID                          : 2
Format                      : AC-3
Format/Info                 : Audio Coding 3
Mode extension              : CM (complete main)
Format settings, Endianness : Big
Codec ID                    : A_AC3
Duration                    : 1h 44mn
Bit rate mode               : Constant
Bit rate                    : 512 Kbps
Channel(s)                  : 6 channels
Channel positions           : Front: L C R, Side: L R, LFE
Sampling rate               : 48.0 KHz
Compression mode            : Lossy
Stream size                 : 381 MiB (12%)
Title                       : Audio Latino
Language                    : Latin
Default                     : Yes
Forced                      : No

Audio #2
ID                          : 3
Format                      : AC-3
Format/Info                 : Audio Coding 3
Mode extension              : CM (complete main)
Format settings, Endianness : Big
Codec ID                    : A_AC3
Duration                    : 1h 44mn
Bit rate mode               : Constant
Bit rate                    : 384 Kbps
Channel(s)                  : 6 channels
Channel positions           : Front: L C R, Side: L R, LFE
Sampling rate               : 48.0 KHz
Compression mode            : Lossy
Stream size                 : 286 MiB (9%)
Title                       : Audio Latino 2 [Redoblaje]
Language                    : Latin
Default                     : No
Forced                      : No

Audio #3
ID                          : 4
Format                      : AC-3
Format/Info                 : Audio Coding 3
Mode extension              : CM (complete main)
Format settings, Endianness : Big
Codec ID                    : A_AC3
Duration                    : 1h 44mn
Bit rate mode               : Constant
Bit rate                    : 320 Kbps
Channel(s)                  : 6 channels
Channel positions           : Front: L C R, Side: L R, LFE
Sampling rate               : 48.0 KHz
Compression mode            : Lossy
Stream size                 : 238 MiB (8%)
Title                       : Audio Inglés
Language                    : English
Default                     : No
Forced                      : No

Text #1
ID                          : 5
Format                      : UTF-8
Codec ID                    : S_TEXT/UTF8
Codec ID/Info               : UTF-8 Plain Text
Title                       : Subt. Latino
Language                    : Latin
Default                     : No
Forced                      : No

Text #2
ID                          : 6
Format                      : UTF-8
Codec ID                    : S_TEXT/UTF8
Codec ID/Info               : UTF-8 Plain Text
Title                       : Subt. English
Language                    : English
Default                     : No
Forced                      : No




                                       Para descargar, usen MegaDownloader








                                                                          Sin Password
 



                                                                  '' Aporte Resubido''




Gracias por pasar, saludos
descargar peliculas - descargar programas
135 Puntos Score: 9/10
Visitas: 1151 Favoritos: 4
Ver los usuarios que votaron...
26 Comentarios Jumanji 1995 1080p Trial Audio ''Latino - Inglés''
Deisculpen por las imagenes que no aparecen,estoy aprendiendo a postear en Identi.
Bro un consulta puede ser que tengas la Pelicula El Especialista (1994) Sylvester Stallone y Sharon Stone, pero con el audio latino que es para la TV (audio latino original), en los canales de TCM, Space y Warner Channel pasan esta pelicula con este audio. Gracias por esta peli una vez mas  
Lastima que está fuera de linea........
Links caidos, podrías resubirla?  
Links muertos mi amigo, podrias arreglarlo porfa
@zenky_316 Hola amigo,vere si la tengo,no podrias dejar algun link  para que pueda contactarte personalmente,fuera de identi esque hace unas horas publique un nuevo post pero lo borraron,para que te envie directo el link personalmente.
@JaleXNet Hola,acabo de areglar los link,aprovecha a descargar,ya que no voy a estar mucho tiempo en identi.
@ringooooo Hola,acabo de areglar los link,aprovecha a descargar,ya que no voy a estar mucho tiempo en identi
@Hect65 Gracias bro mil gracias, si justamente estaba por bajar la peli de los Picapiedras que publicaste en la mañana pero ya no aparece, te puedo dar mi email que es [email protected] , animo tus post son muy buenos  
Gracias amigo,te enviare un enlace para que puedas tener la de los picapiedra via email y si tengo la de stallone en audio original te envio el link,ahora mismo te envio el de los picapiedras,gracias,saludos
@rimoldi72 Hola,acabo de areglar los link,aprovecha a descargar,ya que no voy a estar mucho tiempo en ident
@zenky_316 ya te envie el link de los picapiedras,ve en tu email si ya te llego,y si no me avisas aqui para volver a intentar,saludos y gracias
@fisheye815 Hola,acabo de areglar los link,aprovecha a descargar,ya que no voy a estar mucho tiempo en ident
Gracias! ahora si descargando...inolvidable pelicula!!  
@fisheye815 Gracias a ti amigo,gracia por pasar
Gracias por arreglar los links
 
@ringooooo Gracias a ti por avisar,saludos  
Gracias Amigo .. es justo el AUDIO que busqué hace mucho mucho tiempo ... eres lo maximo .. un gran Aporte ,, Gracias manito ... segun mi rango no puedo dejarte puntos, sino te daría 10...     @Hect65
@Pol30Lobo A mi me importa que solo llegue mis aportes a ustedes, los puntos, quedan en segundo término, gracias por pasar, saludos.  
muchas gracias por el aporte !!!!
@elpeque47 Gracias amigo,valoro tus puntos,saludos.
@LADY_BLUE gracias por la visita amiga y por valorar los aportes ,saludos cordiales.  
Para dejar un comentario Registrate! o.. eres ya usuario? Accede!
Facebook Identi