22 11 63 Serie completa + Libro (MEGA)

STEPHEN KING
22 11 63
SERIE COMPLETA
+
LIBRO (EPUB)


INTRODUCCIÓN
¿Qué fue lo que me llevó a crear este post? Me declaro fanático de King. Anteayer terminé de leer este fantástico libro y decidí indagar un poco más al respecto. Grata fue la sorpresa que me llevé al enterarme de que se había hecho una adaptación en formato de serie de TV en el año 2016 que cuenta con excelentes actores y (de la mano del buen J. J. Abrams) logra una muy buena representación de la novela.

Libro versus serie: Cuando vi el primer capítulo de la serie me emocioné mucho, ya que es muy parecida a cómo lo narra King en su libro y además te golpea a cada segundo con un realismo extraordinario de aquella época (tal como lo hace el libro, siempre y cuando tengas la imaginación necesario XD). A medida que pasaban los capítulos me di cuenta que la serie realiza grandes cambios en la historia de King, por lo tanto pueden ver la serie y leer el libro sin esperar que suceda lo mismo. En lo personal, me gusta más la historia del libro, me abstendré de fundamentar el porqué ya que no pretendo hacer spoilers.


TRAILER



INFORMACIÓN
Productor: J. J. Abrams
Reparto: James Franco (Jake Epping), Sarah Gadon (Sadie Dunhill), Chris Cooper (Al Templeton), Daniel Webber (Lee Harvey Oswald), Lucy Fry (Marina Oswald), Leon Rippy (Harry Dunning)
Argumento: El día 22 de noviembre de 1963, a las 12:30 del día, Lee Oswald sería quien acabase con la vida del presidente de los EE.UU. John F. Kennedy. Pero, ¿qué pasaría si pudieras viajar en el tiempo y evitar que dicha tragedia ocurriera? Bajo esta premisa, acompañamos a Jake Epping (James Franco) en una de las historias más fascinantes que se han escrito hasta ahora acerca de viajes en el tiempo.

INFORMACIÓN DEL ARCHIVO
General
Format                                   : Matroska
Format version                           : Version 4 / Version 2
File size                                : 1.61 GiB
Duration                                 : 1 h 20 min
Overall bit rate                         : 2 848 kb/s
Encoded date                             : UTC 2016-02-14 14:26:57
Writing application                      : mkvmerge v8.4.0 ('A better way to fly') 64bit
Writing library                          : libebml v1.3.1 + libmatroska v1.4.2
Video
ID                                       : 1
Format                                   : AVC
Format/Info                              : Advanced Video Codec
Format profile                           : [email protected]
Format settings, CABAC                   : Yes
Format settings, ReFrames                : 9 frames
Codec ID                                 : V_MPEG4/ISO/AVC
Duration                                 : 1 h 20 min
Bit rate                                 : 2 462 kb/s
Width                                    : 1 280 pixels
Height                                   : 640 pixels
Display aspect ratio                     : 2.000
Frame rate mode                          : Constant
Frame rate                               : 23.976 (24000/1001) FPS
Color space                              : YUV
Chroma subsampling                       : 4:2:0
Bit depth                                : 8 bits
Scan type                                : Progressive
Bits/(Pixel*Frame)                       : 0.125
Stream size                              : 1.39 GiB (86%)
Writing library                          : x264 core 148 r2638 7599210
Language                                 : English
Default                                  : Yes
Forced                                   : No
Color range                              : Limited
Matrix coefficients                      : BT.709
Audio
ID                                       : 2
Format                                   : AC-3
Format/Info                              : Audio Coding 3
Format settings, Endianness              : Big
Codec ID                                 : A_AC3
Duration                                 : 1 h 20 min
Bit rate mode                            : Constant
Bit rate                                 : 384 kb/s
Channel(s)                               : 6 channels
Channel positions                        : Front: L C R, Side: L R, LFE
Sampling rate                            : 48.0 kHz
Frame rate                               : 31.250 FPS (1536 spf)
Bit depth                                : 16 bits
Compression mode                         : Lossy
Stream size                              : 222 MiB (13%)
Service kind                             : Complete Main
Default                                  : Yes
Forced                                   : No




LISTA DE EPISODIOS
1.  The Rabbit Hole (15-02-2016)
2.  The Kill Floor (22-02-2016)
3.  Other Voices, Other Rooms (29-02-2016)
4.  The Eyes of Texas (7-03-2016)
5.  The Truth (14-03-2016)
6.  Happy Birthday, Harvey Lee Oswald (21-03-2016)
7.  Soldier Boy (28-03-2016)
8.  The Day in Question (4-04-2016)


CAPTURAS


DESCARGA


CONTRASEÑA
Hulkens



*El libro está en formato .epub. Existen varios programas gratuitos para abrir este tipo de formato, que en mi opinión es mucho mejor que PDF para este ámbito. Pueden buscar en Google "Calibre" que tiene una versión para PC y también una para android.
*De hace poco me di cuenta que Google Books permite subir tus propios libros y encontré mucho más ventajoso leerlos mediante esta aplicación (también está Books para Google Chrome, por lo tanto puedes leer ya sea en tu PC como en tus dispositivos móviles). Google Books te permite sincronizar entre múltiples dispositivos todas las lecturas y guarda la última página en donde leíste, de modo tal que al dejar la lectura en la página 35 desde tu móvil, al abrir el libro en tu computadora la lectura se reanudará desde la página 35.
*Los subtítulos vienen dentro de cada .rar en formato .srt.
descargar peliculas - descargar programas
50 Puntos Score: 10/10
Visitas: 2113 Favoritos: 9
Ver los usuarios que votaron...
11 Comentarios 22 11 63 Serie completa + Libro (MEGA)
:love:Super Recomendada!! la vi y esta genial la Seria!!  
Excelente serie, la verdad gracias por el libro, ya que la ví el año pasado  
@Ezra232 @MrGrosso @evil_arri Muchas gracias por comentar y por los puntos  
Gracias amigo !!!
@modo0011 A ti, gracias por comentar!! Un abrazo  
Excelente aporte!!!, muchas gracias por compartir...  
@karnactes Gracias a ti igualmente por pasarte y por comentar!! Un saludo  
La busque por todos lados! descargando gracias
tengo el libro pero aun no le llego su momento..
graciasss
@SuperVaco
Cita SuperVaco: Mostrar
Gracias por comentar!  


@Merrr
Cita Merrr: Mostrar
A mí me pareció buenísimo!! Lo que sí, soy algo obsesivo y cada vez que se nombraba una canción yo la anotaba para buscarla XDD. Ahora comencé a leer la Torre Oscura, son 8 tomos y varios libros que ayudan con la comprensión de la saga. En cuanto la termine también la postearé. Un abrazo!!  
Para dejar un comentario Registrate! o.. eres ya usuario? Accede!
Facebook Identi