Rane (The Wounds) Drama

Título original
Rane (The Wounds)
Año
1998
Duración
103 min.
País
Yugoslavia Yugoslavia
Director
Srdjan Dragojevic
Guion
Srdjan Dragojevic
Música
Aleksandar Habic
Fotografía
Dusan Joksimovic
Reparto
Dusan Pekic, Milan Maric, Dragan Bjelogrlic, Branka Katic, Miki Manojlovic, Vesna Trivalic, Andreja Jovanovic, Nikola Kojo, Gorica Popovic, Danilo 'Bata' Stojkovic
Productora
Cobra Film Department / Pandora Filmproduktion
Género
Drama | Comedia negra. Crimen. Adolescencia. Guerra de los Balcanes
Sinopsis
Narra la historia de dos jóvenes de Belgrado ansiosos por experimentar la vida en los turbulentos años del conflicto civil en la antigua Yugoslavia. (FILMAFFINITY)






Video
ID                             : 0
Format                         : MPEG-4 Visual
Format profile                 : Advanced [email protected]
Format settings, BVOP          : 1
Format settings, QPel          : No
Format settings, GMC           : No warppoints
Format settings, Matrix        : Custom
Codec ID                       : XVID
Codec ID/Hint                  : XviD
Duration                       : 1h 38mn
Bit rate                       : 1 408 Kbps
Width                          : 720 pixels
Height                         : 416 pixels
Display aspect ratio           : 1.731
Frame rate                     : 25.000 fps
Color space                    : YUV
Chroma subsampling             : 4:2:0
Bit depth                      : 8 bits
Scan type                      : Progressive
Compression mode               : Lossy
Bits/(Pixel*Frame)             : 0.188
Stream size                    : 997 MiB (87%)
Writing library                : XviD 64

Audio
ID                             : 1
Format                         : AC-3
Format/Info                    : Audio Coding 3
Mode extension                 : CM (complete main)
Format settings, Endianness    : Big
Codec ID                       : 2000
Duration                       : 1h 38mn
Bit rate mode                  : Constant
Bit rate                       : 192 Kbps
Channel(s)                     : 2 channels
Channel positions              : Front: L R
Sampling rate                  : 48.0 KHz
Compression mode               : Lossy
Stream size                    : 136 MiB (12%)
Alignment                      : Split accross interleaves
Interleave, duration           : 40 ms (1.00 video frame)
Interleave, preload duration   : 500 ms


Idioma original subtitulos en español aparte, descarga por mega usar jd o megadowloader
descargar peliculas - descargar programas
15 Puntos Score: 5/10
Visitas: 1404 Favoritos: 0
Ver los usuarios que votaron...
5 Comentarios Rane (The Wounds) Drama
Muchas gracias, me gustan las belicas, un abrazo.  
Belgrado!!! Hermosa ciudad.
Gracias
@gastongas @Dnikonman de nada,esta buena la pelicula
Gracias por tu aporte y por el servidor Mega.  
Para dejar un comentario Registrate! o.. eres ya usuario? Accede!
Facebook Identi