Estación Zombie 1080p Bluray 9GB Excelente Calidad

Train to Busan 1080p Bluray 9GB Excelente Calidad



La pelicula viene con el audio latino aparte solo tienen que unir con mkvtoolnix, les tomara 1 minuto es muy facil.


General
Complete name               :Train.to.Busan.2016.KOREAN.1080p.BluRay.x264.DTS-FGT.DUAL-EDB.mkv
Format                      : Matroska
Format version              : Version 4 / Version 2
File size                   : 9.17 GiB
Duration                    : 1 h 58 min
Overall bit rate            : 11.1 Mb/s
Encoded date                : UTC 2017-03-15 19:00:36
Writing application         : mkvmerge v9.9.0 ('Pick Up') 64bit
Writing library             : libebml v1.3.4 + libmatroska v1.4.5


Video
ID                          : 1
Format                      : AVC
Format/Info                 : Advanced Video Codec
Format profile              : [email protected]
Format settings, CABAC      : Yes
Format settings, ReFrames   : 4 frames
Codec ID                    : V_MPEG4/ISO/AVC
Duration                    : 1 h 58 min
Bit rate                    : 8 900 kb/s
Width                       : 1 920 pixels
Height                      : 1 040 pixels
Display aspect ratio        : 1.85:1
Frame rate mode             : Constant
Frame rate                  : 23.976 (24000/1001) FPS
Color space                 : YUV
Chroma subsampling          : 4:2:0
Bit depth                   : 8 bits
Scan type                   : Progressive
Bits/(Pixel*Frame)          : 0.186
Stream size                 : 7.34 GiB (82%)
Writing library             : x264 core 148 r2705 3f5ed56
Encoding settings           : cabac=1 / ref=4 / deblock=1:0:0 / analyse=0x3:0x113 / me=umh / subme=8 / psy=1 / psy_rd=1.00:0.00 / mixed_ref=1 / me_range=16 / chroma_me=1 / trellis=1 / 8x8dct=1 / cqm=0 / deadzone=21,11 / fast_pskip=1 / chroma_qp_offset=-2 / threads=24 / lookahead_threads=4 / sliced_threads=0 / nr=0 / decimate=1 / interlaced=0 / bluray_compat=0 / constrained_intra=0 / bframes=3 / b_pyramid=2 / b_adapt=2 / b_bias=0 / direct=3 / weightb=1 / open_gop=0 / weightp=2 / keyint=240 / keyint_min=24 / scenecut=40 / intra_refresh=0 / rc_lookahead=50 / rc=2pass / mbtree=1 / bitrate=8900 / ratetol=1.0 / qcomp=0.60 / qpmin=0 / qpmax=69 / qpstep=4 / cplxblur=20.0 / qblur=0.5 / ip_ratio=1.40 / aq=1:1.00
Language                    : English
Default                     : Yes
Forced                      : No

Audio #1
ID                          : 2
Format                      : AC-3
Format/Info                 : Audio Coding 3
Mode extension              : CM (complete main)
Format settings, Endianness : Big
Codec ID                    : A_AC3
Duration                    : 1 h 58 min
Bit rate mode               : Constant
Bit rate                    : 448 kb/s
Channel(s)                  : 6 channels
Channel positions           : Front: L C R, Side: L R, LFE
Sampling rate               : 48.0 kHz
Frame rate                  : 31.250 FPS (1536 spf)
Compression mode            : Lossy
Stream size                 : 379 MiB (4%)
Title                       : [PT-BR] AC3 5.1 - ElitedosBluRays
Language                    : Portuguese
Default                     : No
Forced                      : No

Audio #2
ID                          : 3
Format                      : DTS
Format/Info                 : Digital Theater Systems
Mode                        : 16
Format settings, Endianness : Big
Codec ID                    : A_DTS
Duration                    : 1 h 58 min
Bit rate mode               : Constant
Bit rate                    : 1 509 kb/s
Channel(s)                  : 6 channels
Channel positions           : Front: L C R, Side: L R, LFE
Sampling rate               : 48.0 kHz
Frame rate                  : 93.750 FPS (512 spf)
Bit depth                   : 24 bits
Compression mode            : Lossy
Stream size                 : 1.25 GiB (14%)
Title                       : DTS 5.1 - KOR
Language                    : Korean
Default                     : Yes
Forced                      : No

Text
ID                          : 4
Format                      : UTF-8
Codec ID                    : S_TEXT/UTF8
Codec ID/Info               : UTF-8 Plain Text
Duration                    : 1 h 53 min
Bit rate                    : 22 b/s
Count of elements           : 863
Stream size                 : 18.4 KiB (0%)
Language                    : English
Default                     : Yes
Forced                      : Yes

Menu
00:00:00.000                : en:00:00:00.000
00:11:02.537                : en:00:11:02.537
00:19:35.216                : en:00:19:35.216
00:29:38.443                : en:00:29:38.443
00:39:13.518                : en:00:39:13.518
00:51:01.850                : en:00:51:01.850
00:59:30.025                : en:00:59:30.025
01:08:15.091                : en:01:08:15.091
01:20:56.060                : en:01:20:56.060
01:29:58.268                : en:01:29:58.268
01:38:03.544                : en:01:38:03.544
01:49:07.583                : en:01:49:07.583

General
Complete name               :Train.to.Busan.2016.Latino.ac3
Format                      : AC-3
Format/Info                 : Audio Coding 3
File size                   : 216 MiB
Duration                    : 1 h 58 min
Overall bit rate mode       : Constant
Overall bit rate            : 256 kb/s

Audio
Format                      : AC-3
Format/Info                 : Audio Coding 3
Mode extension              : CM (complete main)
Format settings, Endianness : Big
Duration                    : 1 h 58 min
Bit rate mode               : Constant
Bit rate                    : 256 kb/s
Channel(s)                  : 2 channels
Channel positions           : Front: L R
Sampling rate               : 48.0 kHz
Frame rate                  : 31.250 FPS (1536 spf)
Compression mode            : Lossy
Stream size                 : 216 MiB (100%)










descargar peliculas - descargar programas
35 Puntos Score: 8.8/10
Visitas: 1941 Favoritos: 2
Ver los usuarios que votaron...
5 Comentarios Estación Zombie 1080p Bluray 9GB Excelente Calidad
hola,solo es audio coreano y portugues cierto ???
@luca12 La pelicula si, pero el audio esta aparte en mega, solo tenes que unir ya edite el audio cambie los fps y el delay sin tocar la calidad que es sacada del dvd.
osea es audio español latino descarga del link que puse de mega y junta con mkvtoolnix es muy facil.
perfecto gracias !!!
esto si es calidad papu
Para dejar un comentario Registrate! o.. eres ya usuario? Accede!
Facebook Identi