The 100 Temporada 3 Completa MEGA

THE 100
Complete Season Three






INFORMACIÓN
Título: The 100.
Año: 2016 (tercera temporada)
Género: Ficción postapocalíptica, drama juvenil, ciencia ficción.
Reparto: Eliza Taylor, Paige Turco, Thomas McDonell, Eli Goree, Marie Avgeropoulos, Dichen Lachman, Bob Morley, Kelly Hu, Christopher Larkin, Devon Bostick, Isaiah Washington, Henry Ian Cusick, Lindsey Morgan, Ricky Whittle, Richard Harmon, Zach McGowan
Argumento: Los 100 es una serie de televisión estadounidense de ciencia ficción y drama creada por Jason Rothenberg, basada en la novela del mismo nombre escrita por Kass Morgan. La serie sigue a unos delincuentes juveniles que son enviados de vuelta a la Tierra para ver si el planeta puede ser habitado de nuevo, después de que fuera destruido por una guerra nuclear. Es protagonizada por Eliza Taylor, Thomas McDonell, Marie Avgeropoulos y Bob Morley y fue estrenada el 19 de marzo de 2014.




INFORMACIÓN DEL ARCHIVO
General
Format                                   : Matroska
Format version                           : Version 4 / Version 2
File size                                : 308 MiB
Duration                                 : 42 min 27 s
Overall bit rate                         : 1 014 kb/s
Encoded date                             : UTC 2017-03-13 02:00:36
Writing application                      : mkvmerge v9.9.0 ('Pick Up') 64bit
Writing library                          : libebml v1.3.4 + libmatroska v1.4.5
Video
ID                                       : 1
Format                                   : HEVC
Format/Info                              : High Efficiency Video Coding
Format profile                           : [email protected]@Main
Codec ID                                 : V_MPEGH/ISO/HEVC
Duration                                 : 42 min 27 s
Bit rate                                 : 743 kb/s
Width                                    : 1 280 pixels
Height                                   : 720 pixels
Display aspect ratio                     : 16:9
Frame rate mode                          : Constant
Frame rate                               : 23.976 (24000/1001) FPS
Color space                              : YUV
Chroma subsampling                       : 4:2:0
Bit depth                                : 8 bits
Bits/(Pixel*Frame)                       : 0.034
Stream size                              : 226 MiB (73%)
Title                                    : T100 3.02
Default                                  : Yes
Forced                                   : No
Color range                              : Limited
Color primaries                          : BT.709
Transfer characteristics                 : BT.709
Matrix coefficients                      : BT.709
Audio #1
ID                                       : 2
Format                                   : MPEG Audio
Format version                           : Version 1
Format profile                           : Layer 3
Codec ID                                 : A_MPEG/L3
Codec ID/Hint                            : MP3
Duration                                 : 42 min 27 s
Bit rate mode                            : Constant
Bit rate                                 : 192 kb/s
Channel(s)                               : 2 channels
Sampling rate                            : 44.1 kHz
Frame rate                               : 38.281 FPS (1152 spf)
Compression mode                         : Lossy
Stream size                              : 58.3 MiB (19%)
Title                                    : Latino - megadescargagratis.blogspot.com
Writing library                          : LAME3.99.5
Language                                 : Latin
Default                                  : Yes
Forced                                   : No

Audio #2
ID                                       : 3
Format                                   : AAC
Format/Info                              : Advanced Audio Codec
Format profile                           : HE-AAC / LC
Codec ID                                 : A_AAC
Duration                                 : 42 min 27 s
Bit rate                                 : 76.6 kb/s
Channel(s)                               : 2 channels
Channel positions                        : Front: L R
Sampling rate                            : 48.0 kHz / 24.0 kHz
Frame rate                               : 23.438 FPS (1024 spf)
Compression mode                         : Lossy
Stream size                              : 23.3 MiB (8%)
Title                                    : Inglés - megadescargagratis.blogspot.com
Language                                 : English
Default                                  : No
Forced                                   : No





EPISODIOS INCLUIDOS
1.  Wanheda: Part One (21-01-2016)
2.  Wanheda: Part Two (28-01-2016)
3.  Ye Who Enter Here (4-02-2016)
4.  Watch the Thrones (11-02-2016)
5.  Hakeldama (18-02-2016)
6.  Bitter Harvest (25-02-2016)
7.  Thirteen (3-03-2016)
8.  Terms and Conditions (31-03-2016)
9.  Stealing Fire (31-03-2016)
10. Fallen (7-04-2016)
11. Nevermore (14-04-2016)
12. Demons (21-04-2016)
13. Join or Die (28-04-2016)
14. Red Sky at Morning (5-05-2016)
15. Perverse Instantiation - Part One (12-05-2016)
16. Perverse Instantiation - Part Two (19-05-2016)

CAPTURAS



DESCARGA



CONTRASEÑA
Hulkens



**Los primeros seis capítulos vienen con audio DUAL, el resto está en inglés subtitulado (subtítulos .srt)
descargar peliculas - descargar programas
15 Puntos Score: 7.5/10
Visitas: 801 Favoritos: 2
Ver los usuarios que votaron...
6 Comentarios The 100 Temporada 3 Completa MEGA
Muchas gracias!!  
Muchas gracias compañero!
Tenes idea proque no me deja convertirlo a DVD... con el Convert?? me dice no hay video codificable
Para dejar un comentario Registrate! o.. eres ya usuario? Accede!
Facebook Identi