Night of the Demons 1988 dvdrip latino

Durante la noche de Halloween una chica llamada Angela (Amelia Kinkade) invita a sus amigos a festejar en Hull House, una casa abandonada donde se dice que ocurrieron varios asesinatos, y donde una leyenda macabra cuenta sobre una familia que se volvió loca y cuyos miembros empezaron a matarse entre sí. El grupo de diez adolescentes que aceptó la invitación de Angela decide tener la fiesta de Halloween en una funeraria oculta dentro de la casa, y accidentalmente despiertan a un demonio mientras tienen una sesión de espiritismo allí. El demonio entra en el cuerpo de Angela, y pronto este transforma varios de los adolescentes en demonios también.

El grupo desconoce además que en Hull House se encuentra una franja de tierra impura y no apta para habitabilidad humana, ya que es un refugio de espíritus de demonios que en la noche de Halloween pueden ser convocados con efectividad. Con las puertas, ventanas y demás formas de salir bloqueadas, los no transformados tendrán que ingeniárselas para evitar ser asesinados de una forma brutal por las víctimas poseídas por los 

Video
ID                             : 0
Format                         : MPEG-4 Visual
Format profile                 : Advanced [email protected]
Format settings, BVOP          : 2
Format settings, QPel          : No
Format settings, GMC           : No warppoints
Format settings, Matrix        : Default (MPEG)
Muxing mode                    : Packed bitstream
Codec ID                       : XVID
Codec ID/Hint                  : XviD
Duration                       : 1h 29mn
Bit rate                       : 1 055 Kbps
Width                          : 640 pixels
Height                         : 344 pixels
Display aspect ratio           : 1.85:1
Frame rate                     : 23.976 fps
Color space                    : YUV
Chroma subsampling             : 4:2:0
Bit depth                      : 8 bits
Scan type                      : Progressive
Compression mode               : Lossy
Bits/(Pixel*Frame)             : 0.200
Stream size                    : 677 MiB (84%)
Writing library                : XviD 64

Audio
ID                             : 1
Format                         : AC-3
Format/Info                    : Audio Coding 3
Mode extension                 : CM (complete main)
Format settings, Endianness    : Big
Codec ID                       : 2000
Duration                       : 1h 29mn
Bit rate mode                  : Constant
Bit rate                       : 192 Kbps
Channel(s)                     : 2 channels
Channel positions              : Front: L R
Sampling rate                  : 48.0 KHz
Compression mode               : Lossy
Stream size                    : 124 MiB (15%)
Alignment                      : Aligned on interleaves
Interleave, duration           : 32 ms (0.77 video frame)


Descargar con jd o megadownloder
descargar peliculas - descargar programas
60 Puntos Score: 10/10
Visitas: 1188 Favoritos: 2
Ver los usuarios que votaron...
3 Comentarios Night of the Demons 1988 dvdrip latino
aportazo si la tuvieras las siguientes  
@zetalibra por ahi andan en la web pero no se si tambien estaran en latino despues las busco
Para dejar un comentario Registrate! o.. eres ya usuario? Accede!
Facebook Identi