El hombre elefante dvdrip latino



El hombre elefante (The Elephant Man en inglés) es una película estadounidense de 1980 basada en la historia real de Joseph Merrick (llamado John Merrick en la película), un hombre gravemente deformado que vivió en Londres durante el siglo XIX. La película fue dirigida por David Lynch y protagonizada por John Hurt, Anthony Hopkins, Anne Bancroft, John Gielgud, Wendy Hiller, Michael Elphick, Gordon Hannah y Freddie Jones.

El guion fue adaptado por Lynch, Christopher De Vore, y Eric Bergren de los libros El Hombre Elefante y otras reminiscencias (1923) de Sir Frederick Treves y El Hombre Elefante: Un Estudio de la dignidad humana (1971) de Ashley Montagu. Se rodó en blanco y negro. La película fue un éxito crítico y comercial, y tuvo ocho candidaturas a los premios de la Academia de 1981, incluyendo el otorgado a la mejor película.





Video
ID                          : 0
Format                      : MPEG-4 Visual
Format profile              : Advanced [email protected]
Format settings, BVOP       : 1
Format settings, QPel       : No
Format settings, GMC        : No warppoints
Format settings, Matrix     : Custom
Codec ID                    : XVID
Codec ID/Hint               : XviD
Duration                    : 2 h 3 min
Bit rate                    : 771 kb/s
Width                       : 656 pixels
Height                      : 288 pixels
Display aspect ratio        : 2.25:1
Frame rate                  : 23.976 (24000/1001) FPS
Color space                 : YUV
Chroma subsampling          : 4:2:0
Bit depth                   : 8 bits
Scan type                   : Progressive
Compression mode            : Lossy
Bits/(Pixel*Frame)          : 0.170
Stream size                 : 681 MiB (85%)
Writing library             : XviD 64

Audio
ID                          : 1
Format                      : MPEG Audio
Format version              : Version 1
Format profile              : Layer 3
Mode                        : Joint stereo
Mode extension              : MS Stereo
Codec ID                    : 55
Codec ID/Hint               : MP3
Duration                    : 2 h 3 min
Bit rate mode               : Constant
Bit rate                    : 128 kb/s
Channel(s)                  : 2 channels
Sampling rate               : 48.0 kHz
Compression mode            : Lossy
Stream size                 : 113 MiB (14%)
Alignment                   : Aligned on interleaves
Interleave, duration        : 83  ms (2.00 video frames)
Interleave, preload duratio : 504  ms
Writing library             : LAME3.98r
Encoding settings           : -m j -V 4 -q 2 -lowpass 17 -b 128
Language                    : Espanol


mega usar jd o megadowloder
descargar peliculas - descargar programas
55 Puntos Score: 9.2/10
Visitas: 1362 Favoritos: 3
Ver los usuarios que votaron...
7 Comentarios El hombre elefante dvdrip latino
Guau! esto es un lujo, muy rara vez se encuentra en la red. muchas gracias amigo  
Muchas Muchas Gracias!!
Todo un clásico
A bajar este clásico! muchas gracias  
buenisima pelicula se agradece  
Hola, muy buen dia, un favor podrias resubir el link, esta caido, de antemano gracias y quedo pendiente, salU2 desde la CDMDX.
@ironjuan70 si funciona pero solo para megadowloader o jd o mi pony, asi directo no sirve
Para dejar un comentario Registrate! o.. eres ya usuario? Accede!
Facebook Identi