Eve1287
"Amigos Les Quiero Traer Lo Mejor Para Ustedes,Disfrutenlo"

Kong Skull Island 2017 HD-TS Latino Cam

Kong Skull Island 2017 HD-TS Latino Cam



Sinopsis
 En los años 70, un variopinto grupo de exploradores y soldados es reclutado para viajar
 a una misteriosa isla del Pacífico.
Entre ellos están el capitán James Conrad (Tom Hiddleston), el teniente coronel Packard
(Samuel L. Jackson) y una fotoperiodista (Brie Larson).
Pero al adentrarse en esta bella pero traicionera isla, los exploradores encontrarán algo
 absolutamente sorprendente. Sin saberlo, estarán invadiendo los dominios del mítico Kong,
el gigante gorila rey de esta isla. Será Marlow (John C. Reilly), un peculiar habitante del lugar,
 quien les enseñe los secretos de Isla Calavera,
además del resto de seres monstruosos que la habitan.

General
Format                                   : MPEG-4
Format profile                           : Base Media / Version 2
Codec ID                                 : mp42 (isom/iso2/avc1/mp41)
File size                                : 450 MiB
Duration                                 : 1 h 48 min
Overall bit rate mode                    : Variable
Overall bit rate                         : 582 kb/s

Video
ID                                       : 1
Format                                   : AVC
Format/Info                              : Advanced Video Codec
Format profile                           : [email protected]
Format settings, CABAC                   : Yes
Format settings, ReFrames                : 4 frames
Codec ID                                 : avc1
Codec ID/Info                            : Advanced Video Coding
Duration                                 : 1 h 48 min
Bit rate                                 : 512 kb/s
Width                                    : 716 pixels
Height                                   : 304 pixels
Display aspect ratio                     : 2.35:1
Frame rate mode                          : Variable
Frame rate                               : 30.000 FPS
Minimum frame rate                       : 15.000 FPS
Maximum frame rate                       : 30.000 FPS
Color space                              : YUV
Chroma subsampling                       : 4:2:0
Bit depth                                : 8 bits
Scan type                                : Progressive
Bits/(Pixel*Frame)                       : 0.078
Stream size                              : 394 MiB (88%)

Audio
ID                                       : 2
Format                                   : AAC
Format/Info                              : Advanced Audio Codec
Format profile                           : LC
Codec ID                                 : 40
Duration                                 : 1 h 48 min
Bit rate mode                            : Variable
Bit rate                                 : 64.2 kb/s
Channel(s)                               : 2 channels
Channel positions                        : Front: L R
Sampling rate                            : 44.1 kHz
Frame rate                               : 43.066 FPS (1024 spf)
Compression mode                         : Lossy
Stream size                              : 49.6 MiB (11%)
Title                                    : Stereo / Stereo
Default                                  : Yes

Amigos, espero les guste, obviamente es una version mala y
todo pero pues sin duda es lo mejor que hay hasta el bluray seguro sera a
mediados de junio finales de julio lo mas seguro, pero bueno disfrutenla.








Capturas Propias


peliculas - programas
15 Puntos Score: 7.5/10
Visitas: 3483 Favoritos: 1
Ver los usuarios que votaron...
14 Comentarios Kong Skull Island 2017 HD-TS Latino Cam
Que hace Loki ahi?  
faltó la letra l de island en el título
@HASMER jajajaja trata de unirse a kong vs los vengadores jajajajajajajaja y capitana marvel tmb sale brie larson sexi
@frego2012 si ya se la puse jajaja esque lo escribi rapido y se me paso la l
ya para no ir al cine jejejeje    gracias bro saludos
@pengolin77 jajaja sii la neta que sii de nada bro igual saludos
hola me gustaria verla subtitulada, no tiene los subtitulos? me gusta el audio original.
@Cool33 holaa, pues no la tengo sub, de hecho hay varios usuarios que la subieron sub, esque no hay subtitulos separados asi en srt, solo pegados al video, no se si halla subs aun, dejame buscarlos, pero no aseguro que esten liberados ni nada
pasame el link donde pueda bajarla subtitulada asi pegado al video no importa... gracias
@Cool33 no puedo pasarte el link es spam, mejor espera a ver si encuentro los subs liberados srt, o sino busca aqui en otros post subtitulada la bajas, tienes las dos, extraes el audio latino de mi version la muxeas con la ingles sub, y ya la tienes dual es muy sencillo de nadaa
no veo el link
@javpunk pues dale agregar a jdownloader
Para dejar un comentario Registrate! o.. eres ya usuario? Accede!
Facebook Identi