The 100 Temporada 2 Completa MEGA

THE 100
Complete Season Two




INFORMACIÓN
Título: The 100.
Año: 2014-2015 (segunda temporada)
Género: Ficción postapocalíptica, drama juvenil, ciencia ficción.
Reparto: Eliza Taylor, Paige Turco, Thomas McDonell, Eli Goree, Marie Avgeropoulos, Dichen Lachman, Bob Morley, Kelly Hu, Christopher Larkin, Devon Bostick, Isaiah Washington, Henry Ian Cusick, Lindsey Morgan, Ricky Whittle, Richard Harmon, Zach McGowan
Argumento: Los 100 es una serie de televisión estadounidense de ciencia ficción y drama creada por Jason Rothenberg, basada en la novela del mismo nombre escrita por Kass Morgan. La serie sigue a unos delincuentes juveniles que son enviados de vuelta a la Tierra para ver si el planeta puede ser habitado de nuevo, después de que fuera destruido por una guerra nuclear. Es protagonizada por Eliza Taylor, Thomas McDonell, Marie Avgeropoulos y Bob Morley y fue estrenada el 19 de marzo de 2014.




INFORMACIÓN DEL ARCHIVO
General
Format                                   : MPEG-4
Format profile                           : Base Media
Codec ID                                 : isom (isom)
File size                                : 457 MiB
Duration                                 : 42 min 21 s
Overall bit rate mode                    : Variable
Overall bit rate                         : 1 508 kb/s
Encoded date                             : UTC 2014-10-23 02:02:35
Tagged date                              : UTC 2014-10-23 02:02:35
Video
ID                                       : 2
Format                                   : AVC
Format/Info                              : Advanced Video Codec
Format profile                           : [email protected]
Format settings, CABAC                   : Yes
Format settings, ReFrames                : 5 frames
Codec ID                                 : avc1
Codec ID/Info                            : Advanced Video Coding
Duration                                 : 42 min 21 s
Source duration                          : 42 min 21 s
Bit rate                                 : 1 360 kb/s
Maximum bit rate                         : 6 147 kb/s
Width                                    : 720 pixels
Height                                   : 404 pixels
Display aspect ratio                     : 16:9
Frame rate mode                          : Constant
Frame rate                               : 23.976 (24000/1001) FPS
Color space                              : YUV
Chroma subsampling                       : 4:2:0
Bit depth                                : 8 bits
Scan type                                : Progressive
Bits/(Pixel*Frame)                       : 0.195
Stream size                              : 412 MiB (90%)
Source stream size                       : 412 MiB (90%)
Writing library                          : x264 core 142 r2479 dd79a61
Encoded date                             : UTC 2014-10-23 01:15:31
Tagged date                              : UTC 2014-10-23 02:02:37
Color range                              : Limited
Matrix coefficients                      : BT.709
Audio
ID                                       : 1
Format                                   : AAC
Format/Info                              : Advanced Audio Codec
Format profile                           : LC
Codec ID                                 : 40
Duration                                 : 42 min 21 s
Bit rate mode                            : Variable
Bit rate                                 : 144 kb/s
Maximum bit rate                         : 182 kb/s
Channel(s)                               : 2 channels
Channel positions                        : Front: L R
Sampling rate                            : 48.0 kHz
Frame rate                               : 46.875 FPS (1024 spf)
Compression mode                         : Lossy
Stream size                              : 43.8 MiB (10%)
Encoded date                             : UTC 2014-10-23 02:02:35
Tagged date                              : UTC 2014-10-23 02:02:37




EPISODIOS INCLUIDOS
1.  The 48 (22-10-2014)
2.  Inclement Weather (29-10-2014)
3.  Reapercussions (5-11-2014)
4.  Many Happy Returns (12-11-2014)
5.  Human Trials (19-11-2014)
6.  Fog of War (3-12-2014)
7.  Long Into an Abyss (10-12-2014)
8.  Spacewalker (17-12-2014)
9.  Remember Me (21-01-2015)
10. Survival of the Fittest (28-01-2015)
11. Coup de Grace (4-02-2015)
12. Rubicon (11-02-2015)
13. Resurrection (18-02-2015)
14. Bodyguard of Lies (25-02-2015)
15. Blood Must Have Blood, Part One (4-03-2015)
16. Blood Must Have Blood, Part Two (11-03-2015)

CAPTURAS



DESCARGA


CONTRASEÑA
Hulkens


**Todos los capítulos vienen en inglés subtitulado (subtítulos incluidos dentro de cada archivo .rar).
descargar peliculas - descargar programas
10 Puntos Score: 10/10
Visitas: 456 Favoritos: 1
Ver los usuarios que votaron...
2 Comentarios The 100 Temporada 2 Completa MEGA
Muchas gracias man
Muchas gracias!!  
Para dejar un comentario Registrate! o.. eres ya usuario? Accede!
Facebook Identi