Supernatural Temporada 12 Completa MEGA

SUPERNATURAL
TEMPORADA 12
ACTUALIZADO
AL DÍA: 5-06-2017
(TEMPORADA COMPLETA)





INFORMACIÓN
Título: Supernatural: Twelve Series.
Año: 2016-2017.
Género: Terror, fantasía.
Autor: Andrew Dabb, Brad Buckner, Eugenie Ross-Leming, Robert Berens, Davy Pérez, Meredith Glynn, Steven Yockey.
Reparto: Jensen Ackles (Dean Winchester), Jared Padalecki (Sam Winchester), Misha Collins (Castiel), Mark Sheppard (Crowley), Jim Beaver (Bobby Singer), Mark Pellegrino (Lucifer), Osric Chau (Kevin Tran), Curtis Armstrong (Metatron), Rob Benedict (Chuck Shurley), Emily Swallow (Amara, adult), Steven Williams (Rufus Turner), Lisa Berry (Billie), Ruth Connel (Rowena).

INFORMACIÓN DEL ARCHIVO
General
Format                                   : Matroska
Format version                           : Version 4 / Version 2
File size                                : 241 MiB
Duration                                 : 42 min 5 s
Overall bit rate                         : 802 kb/s
Encoded date                             : UTC 2016-10-13 15:45:24
Writing application                      : mkvmerge v8.4.0 ('A better way to fly') 64bit
Writing library                          : libebml v1.3.1 + libmatroska v1.4.2
Video
ID                                       : 1
Format                                   : AVC
Format/Info                              : Advanced Video Codec
Format profile                           : [email protected]
Format settings, CABAC                   : Yes
Format settings, ReFrames                : 5 frames
Codec ID                                 : V_MPEG4/ISO/AVC
Duration                                 : 42 min 5 s
Bit rate                                 : 678 kb/s
Width                                    : 720 pixels
Height                                   : 404 pixels
Display aspect ratio                     : 16:9
Frame rate mode                          : Constant
Frame rate                               : 23.976 (24000/1001) FPS
Color space                              : YUV
Chroma subsampling                       : 4:2:0
Bit depth                                : 8 bits
Scan type                                : Progressive
Bits/(Pixel*Frame)                       : 0.097
Stream size                              : 204 MiB (84%)
Writing library                          : x264
Language                                 : English
Default                                  : Yes
Forced                                   : No
Color range                              : Limited
Matrix coefficients                      : BT.709
Audio
ID                                       : 2
Format                                   : AAC
Format/Info                              : Advanced Audio Codec
Format profile                           : LC
Codec ID                                 : A_AAC
Duration                                 : 42 min 5 s
Bit rate                                 : 122 kb/s
Channel(s)                               : 2 channels
Channel positions                        : Front: L R
Sampling rate                            : 48.0 kHz
Frame rate                               : 46.875 FPS (1024 spf)
Compression mode                         : Lossy
Delay relative to video                  : 20 ms
Stream size                              : 36.8 MiB (15%)
Default                                  : Yes
Forced                                   : No

CAPÍTULOS INCLUIDOS
1.     Keep Calm and Carry On (13-10-2016)
2.     Mamma Mia (20-10-2016)
3.     The Foundry (27-10-2016)
4.     American Nightmare (3-11-2016)
5.     The one you've been waiting for (10-11-2016)
6.     Celebrating the Life of Asa Fox (17-11-2016)
7.     Rock Never Dies (1-12-2016)
8.     LOTUS (8-12-2016)
9.     First Blood (26-01-2017)
10.    Lily Sunder Has Some Regrets (2-02-2017)
11.    Regarding Dean (9-02-2017)
12.    Stuck in the Middle (With You) (16-02-2017)
13.    Family Feud (23-02-2017)
14.    The Raid (2-03-2017)
15.    Somewhere Between Heaven and Hell (9-03-2017)
16.    Ladies Drink Free (30-03-2017)
17.    The British Invasion (6-04-2017)
18.    The Memory Remains (13-04-2017)
19.    The Future (27-04-2017)
20.    Twigs & Twine & Tasha Banes (4-05-2017)
21.    There's Something About Mary (11-05-2017)
22.    Who We Are (18-05-2017)
23.    All Along the Watchtower (18-05-2017)
TEMPORADA FINALIZADA

CAPTURAS

DESCARGA
[/size]

CONTRASEÑA
Hulkens

**Todos los capítulos están en inglés con su respectivo subtítulo .srt dentro del .rar.
descargar peliculas - descargar programas
115 Puntos Score: 9.6/10
Visitas: 3334 Favoritos: 7
Ver los usuarios que votaron...
37 Comentarios Supernatural Temporada 12 Completa MEGA
Gracias compa. me llevo el 14 y 15 te dejo +10 saludos.  
@i_van
Cita i_van: Mostrar
Gracias por comentar y por los puntos! Un abrazo!!  
chas gracias!!!
me las llevo, gracias +10
@matty_22 @jaime_68 Gracias a ustedes muchachos, por los puntos y por comentar!  
CAPOOOOOO GRACIAS
Gracias por compartir los capitulos.. me llevo del 11 al 15. Saludos!!
@GUILLEW1979 @jcvmaz A ustedes gracias por pasarse y por comentar!! Un abrazo!  
sos un gigante, me lo llevo todo. GRACIAS¡¡¡¡¡
Muchas gracias por el aporte muy bueno... suerte
@jcla1586 @thorkill79 A ustedes gracias por pasarse y comentar!!
@IvAle Gracias por comentar y dejar puntos!  
Post actualizado al 30 de marzo. Capítulo 16 agregado.
Muchas gracias
Muy buen aporte!!  
Gracias por traer esta maravillosa serie, Bro :,v +10  
@pinc13 @Whisper616 @TheDarkSid Muchas gracias chicos por pasarse, comentar y dejarme puntos! Post actualizado, el capítulo 17 ha sido añadido. Un abrazo!  
Cita hulkens: Mostrar
No me deja descargar desde megadownloder, me dice que los rchivs estan corruptos, puedes de alguna manera enviarme desde el 10 en adelante por fa???
@jaime_68 Buenas! ¿Podrías intentar con Jdownloader pls? Lo acabo de comprobar y anda perfect, me avisas  
Cita hulkens: Mostrar
genero los dlc y cuando los quiero cargar me dice que estan corruptos, voy a probar de nuevo y te aviso
chas gracias!!!! tuve q bajar desde jdownloader porq los dlc que creo no funcan,.,..
Gracias, que gran aporte me llevo todo y quedo esperando el 18, gran post
Muchas gracias  
@matty_22 @spawnalex @IvAle @juan0022 Gracias por comentar y por los puntos! Post actualizado.  
Muchas gracias man muy buen aporte  
chas gracias!!! a esperar el proximo...
Muchas Gracias!
Muchisimas gracias!!
@C.Barton @matty_22 @TonyGil @ShurA87 ¡Muchas gracias por pasarse, comentar y por los puntos! He actualizado el post, la temporada ya ha acabado, espero que la disfruten!  
Enhorabuena, muchas gracias por el esfuerzo, lo estaba esperando con ansias  
que onda papu tendrias la temp 10 sub esp?  
mas 10 que aportazo
muchas gracias!!! bajados y probados...!!! +10
@C.Barton @vallepa69 @serdcol201 @chinoar Gracias por pasarse y por los comentarios!!

@JonSasuke Llevo tiempo sin subir nada amigo No he tenido mucho tiempo, pero más adelante de seguro que lo subo! Un abrazo
Para dejar un comentario Registrate! o.. eres ya usuario? Accede!
Facebook Identi