Doctor Who Temporada 7 + especiales MEGA

DOCTOR WHO
SÉPTIMA TEMPORADA




INFORMACIÓN
Título: Doctor Who: The Complete Seventh Series.
Año: 2012-2013.
Género: Ciencia ficción, humor, drama.
Autor: Steven Moffat, Chris Chibnall, Toby Whitehouse, Neil Cross, Mark Gatiss, Neil Gaiman, Stephen Thompson.
Reparto: Matt Smith (el undécimo doctor), Karen Gillan (Amy Pond), Arthur Darvill (Rory Williams), Jenna Coleman (Clara Oswald), David Tennant (Décimo doctor), Billie Piper (Rose Tyler), Pether Capaldi (duodécimo doctor), John Hurt (Doctor Guerrero).


CAPÍTULOS INCLUIDOS
Temporada 7 (En emisión desde el 1-09-2012 al 18-05-2013)
1.     El manicomio de los Daleks
2.     Dinosaurios en una nave espacial
3.     Un pueblo llamado Misericordia
4.     El poder de tres
5.     Los ángeles toman Manhattan
5.a.   Los hombres de nieve
6.     Las campanas de Saint John
7.     Los anillos de Akhaten
8.     La Guerra Fría
9.     Oculto
10.    Viaje al centro de la TARDIS
11.    El horror escarlata
12.    Pesadilla plateada
13.    El nombre del Doctor

Especiales (En emisión desde el 14-11-2013 al 25-12-2013)
14.    La Noche del Doctor
15.    El Día del Doctor
16.    El tiempo del Doctor




INFORMACIÓN DEL ARCHIVO
Capítulos del 1-13
Video
ID                                       : 1
Format                                   : AVC
Format/Info                              : Advanced Video Codec
Format profile                           : [email protected]
Format settings, CABAC                   : Yes
Format settings, ReFrames                : 4 frames
Codec ID                                 : avc1
Codec ID/Info                            : Advanced Video Coding
Duration                                 : 44 min 45 s
Bit rate                                 : 985 kb/s
Width                                    : 1 280 pixels
Height                                   : 720 pixels
Display aspect ratio                     : 16:9
Frame rate mode                          : Constant
Frame rate                               : 25.000 FPS
Color space                              : YUV
Chroma subsampling                       : 4:2:0
Bit depth                                : 8 bits
Scan type                                : Progressive
Bits/(Pixel*Frame)                       : 0.043
Stream size                              : 315 MiB (88%)
Writing library                          : x264 core 142 r2479 dd79a61
Audio
ID                                       : 2
Format                                   : AAC
Format/Info                              : Advanced Audio Codec
Format profile                           : LC
Codec ID                                 : 40
Duration                                 : 44 min 44 s
Bit rate mode                            : Variable
Bit rate                                 : 128 kb/s
Channel(s)                               : 2 channels
Channel positions                        : Front: L R
Sampling rate                            : 48.0 kHz
Frame rate                               : 46.875 FPS (1024 spf)
Compression mode                         : Lossy
Stream size                              : 41.0 MiB (11%)
Title                                    : Stereo / Stereo
Default                                  : Yes
Alternate group                          : 1
Encoded date                             : UTC 2036-02-06 06:28:16
Tagged date                              : UTC 2036-02-06 06:28:16


ESPECIAL 1 LA NOCHE DEL DOCTOR
General
Format                                   : Matroska
Format version                           : Version 2
File size                                : 110 MiB
Duration                                 : 6 min 48 s
Overall bit rate                         : 2 261 kb/s
Writing application                      : HandBrake 0.9.9
Writing library                          : libmkv 0.6.5
Video
ID                                       : 1
Format                                   : AVC
Format/Info                              : Advanced Video Codec
Format profile                           : [email protected]
Format settings, CABAC                   : Yes
Format settings, ReFrames                : 4 frames
Codec ID                                 : V_MPEG4/ISO/AVC
Duration                                 : 6 min 48 s
Bit rate                                 : 2 056 kb/s
Width                                    : 1 280 pixels
Height                                   : 748 pixels
Display aspect ratio                     : 1.710
Original display aspect ratio            : 1.711
Frame rate mode                          : Constant
Frame rate                               : 25.000 FPS
Color space                              : YUV
Chroma subsampling                       : 4:2:0
Bit depth                                : 8 bits
Scan type                                : Progressive
Bits/(Pixel*Frame)                       : 0.086
Stream size                              : 100 MiB (91%)
Writing library                          : x264 core 130 r2273 b3065e6
Audio
ID                                       : 2
Format                                   : AC-3
Format/Info                              : Audio Coding 3
Format settings, Endianness              : Big
Codec ID                                 : A_AC3
Duration                                 : 6 min 48 s
Bit rate mode                            : Constant
Bit rate                                 : 160 kb/s
Channel(s)                               : 2 channels
Channel positions                        : Front: L R
Sampling rate                            : 44.1 kHz
Frame rate                               : 28.711 FPS (1536 spf)
Bit depth                                : 16 bits
Compression mode                         : Lossy
Stream size                              : 7.80 MiB (7%)
Service kind                             : Complete Main
Default                                  : Yes
Forced                                   : No

ESPECIAL 2 DÍA DEL DOCTOR
General
Format                                   : MPEG-4
Format profile                           : Base Media
Codec ID                                 : isom (isom/avc1)
File size                                : 999 MiB
Duration                                 : 1 h 19 min
Overall bit rate mode                    : Variable
Overall bit rate                         : 1 748 kb/s
Encoded date                             : UTC 2013-12-29 16:09:42
Tagged date                              : UTC 2013-12-29 16:09:42
Video
ID                                       : 1
Format                                   : AVC
Format/Info                              : Advanced Video Codec
Format profile                           : [email protected]
Format settings, CABAC                   : Yes
Format settings, ReFrames                : 4 frames
Codec ID                                 : avc1
Codec ID/Info                            : Advanced Video Coding
Duration                                 : 1 h 19 min
Bit rate                                 : 1 648 kb/s
Maximum bit rate                         : 9 458 kb/s
Width                                    : 1 280 pixels
Height                                   : 720 pixels
Display aspect ratio                     : 16:9
Frame rate mode                          : Constant
Frame rate                               : 23.976 (24000/1001) FPS
Color space                              : YUV
Chroma subsampling                       : 4:2:0
Bit depth                                : 8 bits
Scan type                                : Progressive
Bits/(Pixel*Frame)                       : 0.075
Stream size                              : 942 MiB (94%)
Writing library                          : x264 core 138 r2358 9e941d1
Audio
ID                                       : 2
Format                                   : AAC
Format/Info                              : Advanced Audio Codec
Format profile                           : LC
Codec ID                                 : 40
Duration                                 : 1 h 19 min
Bit rate mode                            : Variable
Bit rate                                 : 96.0 kb/s
Maximum bit rate                         : 127 kb/s
Channel(s)                               : 2 channels
Channel positions                        : Front: L R
Sampling rate                            : 48.0 kHz
Frame rate                               : 46.875 FPS (1024 spf)
Compression mode                         : Lossy
Stream size                              : 54.8 MiB (5%)
Language                                 : English
Encoded date                             : UTC 2013-12-29 09:46:03
Tagged date                              : UTC 2013-12-29 16:10:56

ESPECIAL 3 EL TIEMPO DEL DOCTOR
General
Format                                   : Matroska
Format version                           : Version 4 / Version 2
File size                                : 6.81 GiB
Duration                                 : 1 h 1 min
Overall bit rate                         : 15.9 Mb/s
Encoded date                             : UTC 2016-04-01 17:19:27
Writing application                      : mkvmerge v8.9.0 ('Father Daughter') 64bit
Writing library                          : libebml v1.3.3 + libmatroska v1.4.4
Video
ID                                       : 1
Format                                   : AVC
Format/Info                              : Advanced Video Codec
Format profile                           : [email protected]
Format settings, CABAC                   : Yes
Format settings, ReFrames                : 4 frames
Codec ID                                 : V_MPEG4/ISO/AVC
Duration                                 : 1 h 1 min
Bit rate                                 : 13.2 Mb/s
Width                                    : 1 920 pixels
Height                                   : 1 080 pixels
Display aspect ratio                     : 16:9
Frame rate mode                          : Constant
Frame rate                               : 25.000 FPS
Original frame rate                      : 23.976 (24000/1001) FPS
Color space                              : YUV
Chroma subsampling                       : 4:2:0
Bit depth                                : 8 bits
Scan type                                : Progressive
Bits/(Pixel*Frame)                       : 0.255
Stream size                              : 5.89 GiB (86%)
Writing library                          : x264 core 142 r2431 ac76440
Audio #1
ID                                       : 2
Format                                   : AC-3
Format/Info                              : Audio Coding 3
Format settings, Endianness              : Big
Codec ID                                 : A_AC3
Duration                                 : 1 h 1 min
Bit rate mode                            : Constant
Bit rate                                 : 640 kb/s
Channel(s)                               : 6 channels
Channel positions                        : Front: L C R, Side: L R, LFE
Sampling rate                            : 48.0 kHz
Frame rate                               : 31.250 FPS (1536 spf)
Bit depth                                : 16 bits
Compression mode                         : Lossy
Stream size                              : 280 MiB (4%)
Title                                    : "El tiempo del Doctor"
Language                                 : Spanish
Service kind                             : Complete Main
Default                                  : Yes
Forced                                   : No
Audio #2
ID                                       : 3
Format                                   : DTS
Format/Info                              : Digital Theater Systems
Mode                                     : 16
Format settings, Endianness              : Big
Codec ID                                 : A_DTS
Duration                                 : 1 h 1 min
Bit rate mode                            : Constant
Bit rate                                 : 1 510 kb/s
Channel(s)                               : 6 channels
Channel positions                        : Front: L C R, Side: L R, LFE
Sampling rate                            : 48.0 kHz
Frame rate                               : 93.750 FPS (512 spf)
Bit depth                                : 24 bits
Compression mode                         : Lossy
Stream size                              : 660 MiB (9%)
Title                                    : "The time of the Doctor"
Language                                 : English
Default                                  : No
Forced                                   : No



CAPTURAS
Capítulos 1-13



Especial corto (La noche del Doctor)



Especial 2: El día del Doctor (50 aniversario)


Especial 3: El tiempo del Doctor




DESCARGA

CONTRASEÑA
Hulkens

**El último especial viene con audio dual: español de España e inglés.
**Me equivoqué al nombrar los especiales. Aquel que en el archivo de vídeo dice 'Quien715' es en realidad "Quien 714" y viceversa. El especial 'Quien 716 está bien'.
descargar peliculas - descargar programas
20 Puntos Score: 10/10
Visitas: 915 Favoritos: 1
Ver los usuarios que votaron...
0 Comentarios Doctor Who Temporada 7 + especiales MEGA
Este post no tiene comentarios. Sea el primero!
Para dejar un comentario Registrate! o.. eres ya usuario? Accede!
Facebook Identi