The Education of Little Tree MEGA

THE EDUCATION OF LITTLE TREE (1997)




                                                                                                                                 
INFORMACIÓN
Título: The Education of Little Tree (Original); Pequeño Cherokee (España)
Fecha de lanzamiento: 25/12/1997
Director: Richard Friedenberg
Reparto: Tantoo Cardinal, James Cromwell, Rebecca Dewey, Graham Greene
Banda sonora: Mark Isham
Género: Drama
Argumento: En 1930, Pequeño Árbol (Joseph Ashton) es un niño de ocho años que en tiempos de la depresión americana se queda huérfano. Es así cómo se hacen cargo de él sus abuelos indios, que viven en plena naturaleza salvaje, y con los que se criará en la sabiduría del estilo de vida de la tribu de los cherokees. Willow John será también clave en el crecimiento y aprendizaje de Pequeño Árbol. Es así que el chaval aprende la historia de cómo los primeros pobladores caucásicos se aproximaron a ellos para después utilizar la fuerza armada para arrebatarles las tierras, algo que les forzó a buscar un nuevo lugar donde asentarse dejando atrás la muerte de muchos seres queridos que fallecieron durante los enfrentamientos. Cuando los servicios sociales del estado averiguan el paradero de Pequeño Árbol, le recriminan a sus abuelos que no esté yendo a la escuela y que en su lugar ayude a su abuelo en una licorería.

                                       
INFORMACIÓN DEL ARCHIVO

General
Complete name               : The Education of Little Tree
Format                      : AVI
Format/Info                 : Audio Video Interleave
File size                   : 1.41 GiB
Duration                    : 1 h 55 min
Overall bit rate            : 1 749 kb/s
Writing library             : VirtualDub build 32842/release
Video
ID                          : 0
Format                      : MPEG-4 Visual
Format profile              : Advanced [email protected]
Format settings, BVOP       : 1
Format settings, QPel       : No
Format settings, GMC        : No warppoints
Format settings, Matrix     : Default (MPEG)
Codec ID                    : XVID
Codec ID/Hint               : XviD
Duration                    : 1 h 55 min
Bit rate                    : 1 612 kb/s
Width                       : 608 pixels
Height                      : 336 pixels
Display aspect ratio        : 16:9
Frame rate                  : 23.976 (24000/1001) FPS
Color space                 : YUV
Chroma subsampling          : 4:2:0
Bit depth                   : 8 bits
Scan type                   : Progressive
Compression mode            : Lossy
Bits/(Pixel*Frame)          : 0.329
Stream size                 : 1.30 GiB (92%)
Writing library             : XviD 1.2.0.dev47 (UTC 2006-11-01)
Audio
ID                          : 1
Format                      : AC-3
Format/Info                 : Audio Coding 3
Format settings, Endianness : Big
Codec ID                    : 2000
Duration                    : 1 h 55 min
Bit rate mode               : Constant
Bit rate                    : 128 kb/s
Channel(s)                  : 2 channels
Channel positions           : Front: L R
Sampling rate               : 48.0 kHz
Frame rate                  : 31.250 FPS (1536 spf)
Bit depth                   : 16 bits
Compression mode            : Lossy
Stream size                 : 106 MiB (7%)
Alignment                   : Aligned on interleaves
Interleave, duration        : 42  ms (1.00 video frame)
Interleave, preload duration: 512  ms
Service kind                : Complete Main


CAPTURAS 

DESCARGA


CONTRASEÑA
Hulkens
descargar peliculas - descargar programas
14 Puntos Score: 7/10
Visitas: 975 Favoritos: 1
Ver los usuarios que votaron...
4 Comentarios The Education of Little Tree MEGA
Espectacular pelicula,mil gracias (hace muchisimos siglos que la venia buscando9
@kinjo
Cita kinjo: Mostrar
A ti, gracias por comentar!  
Muchas gracias  
Para dejar un comentario Registrate! o.. eres ya usuario? Accede!
Facebook Identi