Pee wees Big Adventure trial latino xvid comedia

Salio esta pelicula en bluray con audio latino pero para mi desgracia es un vil redoblaje, asi que yo tenia el audio latino original grabado de cartoon network en un vhs y lo sincronize para esta pelicula, la subo en xvid por el tamaño mas pequeño ya que el hd pesa 6 gigas si les interesa el hd pueden buscarlo por torrent con este nombre Pee.wees.Big.Adventure.1985.1080p.BluRay.x264-PSYCHD encontre otras versiones de hd mas pequeñas  pero la calidad no me gusto y descargue la de 6 gigas,la pelicula viene con 3 audios inclui el redoblaje por si a alguien le gusta,audio 1 latino cartoon network vhs,audio 2 latino redoblaje bluray,audio 3 ingles los subtitulos se los debo,

Pee-Wee tiene una flamante bicicleta roja y blanca que es la envidia de los niños del barrio, pero, mientras compra una bocina nueva, alguien se la roba. Empezará entonces a buscarla incansablemente, pero sin éxito; por ello decide visitar a una vidente para que le diga su paradero, pero la mujer se equivoca. Cuando Pee-Wee reanuda la búsqueda vivirá innumerables aventuras: subirá al coche de un preso fugado, viajará con una camionera fantasma, muerta hace un año, montará un toro salvaje...

Director: Tim Burton
Reparto: Diane Salinger, Elizabeth Daily, Mark Holton, Paul Reubens
Género: Aventura, Comedia, Familia, Fantasía
Idioma: Varios 
Duración: 1 h 30 min

General
Complete name Pee-wees.Big.Adventure trial.avi
Format                         : AVI
Format/Info                    : Audio Video Interleave
File size                      : 1.23 GiB
Duration                       : 1h 31mn
Overall bit rate               : 1 927 Kbps
Writing application            : VirtualDubMod 1.5.10.3 | www.virtualdub-fr.org || (build 2550/release)
Writing library                : VirtualDubMod build 2550/release

Video
ID                             : 0
Format                         : MPEG-4 Visual
Format profile                 : Advanced [email protected]
Format settings, BVOP          : 1
Format settings, QPel          : No
Format settings, GMC           : No warppoints
Format settings, Matrix        : Custom
Codec ID                       : XVID
Codec ID/Hint                  : XviD
Duration                       : 1h 31mn
Bit rate                       : 1 524 Kbps
Width                          : 720 pixels
Height                         : 416 pixels
Display aspect ratio           : 1.731
Frame rate                     : 23.976 fps
Color space                    : YUV
Chroma subsampling             : 4:2:0
Bit depth                      : 8 bits
Scan type                      : Progressive
Compression mode               : Lossy
Bits/(Pixel*Frame)             : 0.212
Stream size                    : 997 MiB (79%)
Writing library                : XviD 64

Audio #1
ID                             : 1
Format                         : AC-3
Format/Info                    : Audio Coding 3
Mode extension                 : CM (complete main)
Format settings, Endianness    : Big
Codec ID                       : 2000
Duration                       : 1h 31mn
Bit rate mode                  : Constant
Bit rate                       : 128 Kbps
Channel(s)                     : 2 channels
Channel positions              : Front: L R
Sampling rate                  : 48.0 KHz
Compression mode               : Lossy
Stream size                    : 83.7 MiB (7%)
Alignment                      : Split accross interleaves
Interleave, duration           : 42 ms (1.00 video frame)
Interleave, preload duration   : 500 ms

Audio #2
ID                             : 2
Format                         : AC-3
Format/Info                    : Audio Coding 3
Mode extension                 : CM (complete main)
Format settings, Endianness    : Big
Codec ID                       : 2000
Duration                       : 1h 31mn
Bit rate mode                  : Constant
Bit rate                       : 128 Kbps
Channel(s)                     : 2 channels
Channel positions              : Front: L R
Sampling rate                  : 48.0 KHz
Compression mode               : Lossy
Stream size                    : 83.7 MiB (7%)
Alignment                      : Split accross interleaves
Interleave, duration           : 42 ms (1.00 video frame)
Interleave, preload duration   : 500 ms

Audio #3
ID                             : 3
Format                         : AC-3
Format/Info                    : Audio Coding 3
Mode extension                 : CM (complete main)
Format settings, Endianness    : Big
Codec ID                       : 2000
Duration                       : 1h 31mn
Bit rate mode                  : Constant
Bit rate                       : 128 Kbps
Channel(s)                     : 2 channels
Channel positions              : Front: L R
Sampling rate                  : 48.0 KHz
Compression mode               : Lossy
Stream size                    : 83.7 MiB (7%)
Alignment                      : Split accross interleaves
Interleave, duration           : 42 ms (1.00 video frame)
Interleave, preload duration   : 500 ms


Descargar con megadowloader o jd o mi pony

peliculas - programas
20 Puntos Score: 10/10
Visitas: 815 Favoritos: 0
Ver los usuarios que votaron...
2 Comentarios Pee wees Big Adventure trial latino xvid comedia
APORTAZOOOOOOO GRACIAS
Para dejar un comentario Registrate! o.. eres ya usuario? Accede!
Facebook Identi