Oops.. Este post tiene los enlaces eliminados!

Identi revisa las denuncias de los usuarios en busca de enlaces eliminados que no dejan descargar los archivos, este mensaje te informa que este post que estas viendo tiene los enlaces eliminados.

Usa el Buscador

Por favor, te recomendamos que uses el buscador para encontrar más alternativas.

Kung Fu Panda 2 (2011) HDTVRip READNFO x264-BBnRG

  • Categoría: Reciclaje
  • Publicado hace más de 5 años
 
Kung Fu Panda 2 (2011) HDTVRip READNFO x264-BBnRG





INFO:
 General Details
 Complete name : Kung Fu Panda 2 (2011) HDTVRip READNFO x264-BBnRG
 Format : MPEG-4
 Format profile : Base Media / Version 2
 Codec ID : mp42
 File size : 398 MiB
 Duration : 1h 25mn
 Overall bit rate : 650 Kbps
 Video
 ID : 1
 Format : AVC
 Format/Info : Advanced Video Codec
 Format profile : [email protected]
 Format settings, CABAC : Yes
 Format settings, ReFrames : 4 frames 
Codec ID : avc1  Codec ID/Info : Advanced Video Coding
 Duration : 1h 25mn
 Bit rate mode : Variable
 Bit rate : 489 Kbps
 Width : 720 pixels
 Height : 304 pixels
 Display aspect ratio : 2.35:1
 Frame rate mode : Variable
 Frame rate : 29.970 fps 
Minimum frame rate : 29.960 fps
 Maximum frame rate : 29.970 fps
 Color space : YUV
 Chroma subsampling : 4:2:0
 Bit depth : 8 bits 
Scan type : Progressive
 Bits/(Pixel*Frame) : 0.075 
Stream size : 299 MiB (75%) 
Writing library : x264 core 112 

Audio
 ID : 2
 Format : AAC
 Format/Info : Advanced Audio Codec
 Format profile : LC
 Codec ID : 40
 Duration : 1h 24mn
 Bit rate mode : Variable 
Bit rate : 160 Kbps
 Maximum bit rate : 281 Kbps
 Channel(s) : 2 channels
 Channel positions : Front: L R
 Sampling rate : 48.0 KHz
 Compression mode : Lossy 
Stream size : 96.3 MiB (24%)




Kung Fu Panda 2 (2011) HDTVRip READNFO x264-BBnRG
5 Puntos Score: 5/10
Visitas: 1619 Favoritos: 0
Ver los usuarios que votaron...
12 Comentarios Kung Fu Panda 2 (2011) HDTVRip READNFO x264-BBnRG
Disculpa ...en que idioma esta???
Si amigo en ke idioma esta la pelicula......
@leonmao @i_van la baje y esta en ingles  
esta en ingles....
Ok muchas gracias por contestar
necesito dvd rip
Cita Perseo22: Mostrar
Pasame los subtitulos si los tenes a mano por favor.... Se ve buena la peli, pero no entiendo casi nada      
Para dejar un comentario Registrate! o.. eres ya usuario? Accede!