Oops.. Este post tiene los enlaces eliminados!

Identi revisa las denuncias de los usuarios en busca de enlaces eliminados que no dejan descargar los archivos, este mensaje te informa que este post que estas viendo tiene los enlaces eliminados.

Usa el Buscador

Por favor, te recomendamos que uses el buscador para encontrar más alternativas.

Moisés Los 10 Mandamientos 143/176[TrueHD720p]Dual

  • Categoría: Reciclaje
  • Publicado hace más de 7 meses
Moisés: Los 10 Mandamientos 143 de 176 [TrueHD 720p] Audio Dual Audio Latino + Portugués (Brasil)












Moisés y los diez mandamientos es una telenovela brasileña que está basada en la historia bíblica de Moisés.


La historia comienza en la ciudad de Pi-Ramsés, en Egipto, aproximadamente en el año 1.300 A.C., cuando el poderoso faraón Seti I manda a asesinar a todos los recién nacidos de sexo masculino de las familias hebreas.











Características

Video
Format                      : AVC
Format/Info                 : Advanced Video Codec
Format profile              : [email protected]
Format settings, ReFrames   : 9 frames
Codec ID                    : V_MPEG4/ISO/AVC
Duration                    : 59 min
Bit rate                    : 4 031 kb/s
Width                       : 1 280 pixels
Height                      : 720 pixels
Display aspect ratio        : 16:9
Stream size                 : 1.68 GiB (92%)

Audio #1
Bit rate                    : 128 kb/s
Channel(s)                  : 2 channels
Sampling rate               : 44.1 kHz
Stream size                 : 54.7 MiB (3%)
Language                    : Spanish

Audio #2
Bit rate                    : 128 kb/s
Channel(s)                  : 2 channels
Sampling rate               : 44.1 kHz
Stream size                 : 54.7 MiB (3%)
Language                    : Portuguese









Capturas en 1080p, tomadas desde mi monitor

 
 
 
 



















Password/Contraseña: Masterwe#Identi.li&onlY






Prueba y Comenta..!


1- De esa forma me ayudas a mejorar mis aportes
2- Ayudas a los nuevos visitantes a ver si el aporte es bueno
3- Nos ayudamos todos


Para mas información y descargas visítenme en mi perfil

Sígueme y seras el primero en saber de mis aportes





descargar peliculas - descargar programas
40 Puntos Score: 10/10
Visitas: 2232 Favoritos: 2
Ver los usuarios que votaron...
19 Comentarios Moisés Los 10 Mandamientos 143/176[TrueHD720p]Dual
Genial, por aqui se ve la novela.
Gracias @MasteWe como siempre muy esperado este grandioso aporte!! Muchas gracias y grandes exitos en los que están por venir!!
@argentum gracias colega por el apoyo.. espero disfrutes de los aportes..
@lomba @Teodoro70 @davidlg42 @argentum @samparra13 Enlaces actualizados, solo vuelvan a agregarlos al JD
NUEVAMENTE MUCHISIMAS GRACIAS AMIGO @MasterWe
Gracias amigo los esperaba con grandes ansias .... +10 Bendiciones
te falto el archivo 3 en cap 126 y 139
@candy90 No, no me ha faltado nada..  

@MasterWe hola amigo de casualidad no tenés la segunda temporada completa de buena suerte charlie en latino completa??
@bonanott No colega, ni siquiera conozco la serie..  
@MasterWe GRACIAS PROBLEMA SOLUCIONADO
@MasterWe Saludos amigo...... Esperando anciosamente mas capítulos de esta gran historia y serie Biblica!!!
Bendiciones
MasterWe , por favor seguiras posteando los 33 capitulos restantes ?
gracias amigo bendiciones esperando los demas capitulos
Links caidos  
Para dejar un comentario Registrate! o.. eres ya usuario? Accede!
Facebook Identi