Supergirl S02x14 (x264)




SIPNOSIS

Supergirl es un serie de acción y aventuras basado en el personaje de DC Comics Kara Zor-El (Melissa Benoist), la prima de Superman, quien después de 12 años escondiendo sus poderes al mundo decide aceptar sus habilidades para convertirse en una superheroína.Supergirl es un serie de acción y aventuras basado en el personaje de DC Comics Kara Zor-El (Melissa Benoist), la prima de Superman, quien después de 12 años escondiendo sus poderes al mundo decide aceptar sus habilidades para convertirse en una superheroína
Info Multimedia:
     Complete name : Supergirl 2x14.hdtv-lol.mkv
     Format : Matroska
     Format version : Version 4 / Version 2
     File size : 265 MiB
     Duration : 42 min 28 s
     Overall bit rate : 872 kb/s
  Video #1
     ID : 1
     Format : AVC
     Format/Info : Advanced Video Codec
     Format profile : [email protected]
     Format settings, CABAC : Yes
     Format settings, ReFrames : 5 frames
     Codec ID : V_MPEG4/ISO/AVC
     Duration : 42 min 28 s
     Bit rate : 751 kb/s
     Width : 720 pixels
     Height : 404 pixels
     Display aspect ratio : 16:9
     Frame rate mode : Constant
     Frame rate : 23.976 (24000/1001) FPS
     Color space : YUV
     Chroma subsampling : 4:2:0
     Bit depth : 8 bits
     Scan type : Progressive
     Bits/(Pixel*Frame) : 0.108
     Stream size : 228 MiB (86%)
     Language : English
     Default : Yes
     Forced : No
     Color range : Limited
     Matrix coefficients : BT.709
  Audio #2
     ID : 2
     Format : AAC
     Format/Info : Advanced Audio Codec
     Format profile : LC
     Codec ID : A_AAC
     Duration : 42 min 27 s
     Bit rate : 119 kb/s
     Channel(s) : 2 channels
     Channel positions : Front: L R
     Sampling rate : 48.0 kHz
     Frame rate : 46.875 FPS (1024 spf)
     Compression mode : Lossy
     Delay relative to video : 9 ms
     Stream size : 36.0 MiB (14%)
     Default : Yes
     Forced : No

TRAILER

CAPTURAS

ENLACES DE DESCARGA



[/size][/color][/i]

sin pass
descargar peliculas - descargar programas
10 Puntos Score: 10/10
Visitas: 725 Favoritos: 1
Ver los usuarios que votaron...
5 Comentarios Supergirl S02x14 (x264)
@ch3rn4nd3z Excelente aporte pero el archivo esta corrupto tiene error en la suma del fichero y no descomprime si puedes arreglarla.  
raro, voy a revisarlo!
Cita erfagope: Mostrar
Cambié el enlace para que no haya problemas
Para dejar un comentario Registrate! o.. eres ya usuario? Accede!
Facebook Identi