Powerless S01E04

Powerless S01E04



En la primera serie de comedia ambientada en el universo de DC Comics, Vanessa Hudgens (“Grease Live”, “High School Musical”) interpreta a Emily, una joven y determinada agente de seguros especializada en cubrir a gente normal contra el daño causado por los superhéroes que luchan contra el crimen. Es cuando ella se encara contra una de estas figuras tan emblemáticas (después de que una batalla épica cause problemas en su transporte) que ella accidentamente se convierte en una heroína de culto por derecho propio… incluso si es solo entre su adorable grupo de compañeros de trabajo. Ahora, mientras vive su vida normal con un telón de fondo explosivo, Emily quizás descubra que para ser una heroína no siempre se necesitan superpoderes.

El reparto incluye a Vanessa Hudgens, Alan Tudyk, Danny Pudi y Christina Kirk.

Ben Queen es guionista y productor ejecutivo. El director del piloto Michael Patrick Jann es también productor ejecutivo. “Powerless” está producida por Warner Bros. Television y basada en los personajes de DC Comics.


Media Info:
      Complete name : Powerless 1x04 - Emily Dates a Henchman.mkv
      Format : Matroska
      Format version : Version 2
      File size : 407 MiB
      Duration : 21mn 35s
      Overall bit rate : 2 634 Kbps
      Encoded date : UTC 2017-02-23 19:39:30
      Writing application : mkvmerge v3.1.0 ('Happy up here') built on Jan 19 2010 12:09:24
      Writing library : libebml v0.7.9 + libmatroska v0.8.1
   Video #1
      ID : 1
      Format : AVC
      Format/Info : Advanced Video Codec
      Format profile : [email protected]
      Format settings, CABAC : Yes
      Format settings, ReFrames : 8 frames
      Codec ID : V_MPEG4/ISO/AVC
      Duration : 21mn 35s
      Bit rate : 2 198 Kbps
      Width : 1 280 pixels
      Height : 720 pixels
      Display aspect ratio : 16:9
      Frame rate mode : Constant
      Frame rate : 23.976 fps
      Color space : YUV
      Chroma subsampling : 4:2:0
      Bit depth : 8 bits
      Scan type : Progressive
      Bits/(Pixel*Frame) : 0.099
      Stream size : 339 MiB (83%)
      Language : English
      Default : No
      Forced : No
   Audio #2
      ID : 2
      Format : AC-3
      Format/Info : Audio Coding 3
      Mode extension : CM (complete main)
      Format settings, Endianness : Big
      Codec ID : A_AC3
      Duration : 21mn 35s
      Bit rate mode : Constant
      Bit rate : 384 Kbps
      Channel(s) : 6 channels
      Channel positions : Front: L C R, Side: L R, LFE
      Sampling rate : 48.0 KHz
      Bit depth : 16 bits
      Compression mode : Lossy
      Delay relative to video : 18ms
      Stream size : 59.3 MiB (15%)
      Default : Yes
      Forced : No

Subtitulos por separado Fto .srt







ninguna
peliculas - programas
5 Puntos Score: 5/10
Visitas: 474 Favoritos: 0
Ver los usuarios que votaron...
3 Comentarios Powerless S01E04
Gracias...se ve interesante

bajandooo.
Hola, de esta serie llegaste hasta el episodio 4, oajlá puedas seguir subiendo. Saludes  
Para dejar un comentario Registrate! o.. eres ya usuario? Accede!
Facebook Identi