Passengers |2016|Webdl 720p| Mega| Subs



Passengers |2016|Webdl 720p| Mega| Subs










Título original:    Passengers
Año:    2016
Duración:    116 min.
País:    Estados Unidos Estados Unidos
Director:    Morten Tyldum
Guion:    Jon Spaihts
Música:    Thomas Newman
Fotografía:    Rodrigo Prieto
Reparto:    Chris Pratt, Jennifer Lawrence, Michael Sheen, Laurence Fishburne, Andy García, Julee Cerda, Kara Flowers
Productora:    Columbia Pictures / Lstar Capital / Village Roadshow Pictures / Original Film / Company Films / Start Motion Pictures
Género:    Ciencia ficción. Drama. Aventuras. Romance | Aventura espacial. 3-D

Sinopsis

    Una nave espacial, que viaja a un planeta lejano transportando a miles de personas, tiene una avería en una de las cápsulas de hibernación tras el impacto con un gran meteorito. Como resultado, un pasajero se despierta noventa años antes del final del viaje.






General
Passengers.2016.720p.10bit.mkv
Format                         : Matroska
Format version                 : Version 4 / Version 2
File size                      : 745 MiB
Duration                       : 1 h 56 min
Overall bit rate               : 896 kb/s
Encoded date                   : UTC 2017-02-22 22:25:52
Writing application            : mkvmerge v9.8.0 ('Kuglblids') 64bit
Writing library                : libebml v1.3.4 + libmatroska v1.4.5

Video
ID                             : 1
Format                         : HEVC
Format/Info                    : High Efficiency Video Coding
Format profile                 : Main [email protected]@Main
Codec ID                       : V_MPEGH/ISO/HEVC
Duration                       : 1 h 56 min
Bit rate                       : 798 kb/s
Width                          : 1 280 pixels
Height                         : 720 pixels
Display aspect ratio           : 2.40:1
Frame rate mode                : Constant
Frame rate                     : 23.976 (23976/1000) FPS
Color space                    : YUV
Chroma subsampling             : 4:2:0
Bit depth                      : 10 bits
Bits/(Pixel*Frame)             : 0.036
Stream size                    : 663 MiB (89%)


Audio
ID                             : 2
Format                         : AAC
Format/Info                    : Advanced Audio Codec
Format profile                 : LC
Codec ID                       : A_AAC
Duration                       : 1 h 56 min
Bit rate                       : 96.0 kb/s
Channel(s)                     : 2 channels
Channel positions              : Front: L R
Sampling rate                  : 44.1 kHz
Frame rate                     : 43.066 FPS (1024 spf)
Compression mode               : Lossy
Stream size                    : 80.3 MiB (11%)
Language                       : English
Default                        : Yes
Forced                         : No

Menu
00:00:00.000                   : en:1
00:07:03.673                   : en:2
00:14:37.209                   : en:3
00:20:32.647                   : en:4
00:25:05.336                   : en:5
00:30:29.660                   : en:6
00:40:46.985                   : en:7
00:50:22.018                   : en:8
00:57:27.943                   : en:9
01:02:53.810                   : en:10
01:10:46.157                   : en:11
01:17:47.661                   : en:12
01:25:16.026                   : en:13
01:31:44.039                   : en:14
01:37:52.240                   : en:15
01:42:17.546                   : en:16






























SUBTITULOS LATINO



Cita: Mostrar





peliculas - programas
21 Puntos Score: 7/10
Visitas: 1214 Favoritos: 0
Ver los usuarios que votaron...
6 Comentarios Passengers |2016|Webdl 720p| Mega| Subs
Gracias amigo  
Gracias , gran aporte!!!
Para dejar un comentario Registrate! o.. eres ya usuario? Accede!
Facebook Identi