jacku
"Aportando ese Faltante en la Red."

Spider-Man BRrip Mega

Sinopsis
Tras la muerte de sus padres, Peter Parker, un tímido estudiante, vive con su tía May y su tío Ben. Precisamente debido a su retraimiento no es un chico muy popular en el instituto. Un día le muerde una araña que ha sido modificada genéticamente; a la mañana siguiente, descubre estupefacto que posee la fuerza y la agilidad de ese insecto. Las aventuras del hombre araña se basan en el famoso cómic de Stan Lee y Steve Ditko.
Media Info
General
 BRRip Dual Latino 720p\El Hombre Arana (2002) BRRip Dual Latino 720p.mkv
Format                      : Matroska
Format version              : Version 2
File size                   : 1.75 GiB
Duration                    : 2 h 1 min
Overall bit rate            : 2 071 kb/s
Encoded date                : UTC 
Writing application         : HandBrake 0.10.2 2015060900
Writing library             : Lavf55.12.0 / Lavf55.12.0
Video
ID                          : 1
Format                      : AVC
Format/Info                 : Advanced Video Codec
Format profile              : [email protected]
Format settings, CABAC      : Yes
Format settings, ReFrames   : 4 frames
Codec ID                    : V_MPEG4/ISO/AVC
Duration                    : 2 h 1 min
Bit rate                    : 1 500 kb/s
Width                       : 1 280 pixels
Height                      : 720 pixels
Display aspect ratio        : 16:9
Frame rate mode             : Constant
Frame rate                  : 23.976 (24000/1001) FPS
Color space                 : YUV
Chroma subsampling          : 4:2:0
Bit depth                   : 8 bits
Scan type                   : Progressive
Bits/(Pixel*Frame)          : 0.068
Stream size                 : 1.29 GiB (73%)
Writing library             : x264 core 142 r2479 dd79a61
 
Audio #1
ID                          : 2
Format                      : AC-3
Format/Info                 : Audio Coding 3
Mode extension              : CM (complete main)
Format settings, Endianness : Big
Codec ID                    : A_AC3
Duration                    : 2 h 1 min
Bit rate mode               : Constant
Bit rate                    : 256 kb/s
Channel(s)                  : 6 channels
Channel positions           : Front: L C R, Side: L R, LFE
Sampling rate               : 48.0 kHz
Frame rate                  : 31.250 FPS (1536 spf)
Bit depth                   : 16 bits
Compression mode            : Lossy
Delay relative to video     : -5 ms
Stream size                 : 222 MiB (12%)
Title                       : Surround
Language                    : Spanish
Default                     : Yes
Forced                      : No
Audio #2
ID                          : 3
Format                      : AC-3
Format/Info                 : Audio Coding 3
Mode extension              : CM (complete main)
Format settings, Endianness : Big
Codec ID                    : A_AC3
Duration                    : 2 h 1 min
Bit rate mode               : Constant
Bit rate                    : 256 kb/s
Channel(s)                  : 6 channels
Channel positions           : Front: L C R, Side: L R, LFE
Sampling rate               : 48.0 kHz
Frame rate                  : 31.250 FPS (1536 spf)
Bit depth                   : 16 bits
Compression mode            : Lossy
Delay relative to video     : -5 ms
Stream size                 : 222 MiB (12%)
Title                       : Surround
Language                    : English
Default                     : No
Forced                      : No
Text #1
ID                          : 4
Format                      : PGS
Codec ID                    : S_HDMV/PGS
Codec ID/Info               : Picture based subtitle format used on BDs/HD-DVDs
Language                    : Spanish
Default                     : No
Forced                      : No
Text #2
ID                          : 5
Format                      : PGS
Codec ID                    : S_HDMV/PGS
Codec ID/Info               : Picture based subtitle format used on BDs/HD-DVDs
Language                    : English
Default                     : No
Forced                      : No
Text #3
ID                          : 6
Format                      : PGS
Codec ID                    : S_HDMV/PGS
Codec ID/Info               : Picture based subtitle format used on BDs/HD-DVDs
Language                    : English
Default                     : No
Forced                      : No
Menu
00:00:00.000                : :Chapter 1
00:06:29.551                : :Chapter 2
00:09:22.975                : :Chapter 3
00:14:56.266                : :Chapter 4
00:17:50.732                : :Chapter 5
00:21:53.683                : :Chapter 6
00:23:28.695                : :Chapter 7
00:25:18.846                : :Chapter 8
00:34:35.194                : :Chapter 9
00:40:22.249                : :Chapter 10
00:41:44.206                : :Chapter 11
00:43:13.962                : :Chapter 12
00:44:40.090                : :Chapter 13
00:54:33.057                : :Chapter 14
00:55:52.637                : :Chapter 15
01:00:49.016                : :Chapter 16
01:04:20.853                : :Chapter 17
01:05:57.115                : :Chapter 18
01:12:12.449                : :Chapter 19
01:14:18.950                : :Chapter 20
01:15:48.748                : :Chapter 21
01:19:35.600                : :Chapter 22
01:22:06.542                : :Chapter 23
01:25:13.688                : :Chapter 24
01:30:39.304                : :Chapter 25
01:39:36.758                : :Chapter 26
01:45:08.464                : :Chapter 27
01:50:27.909                : :Chapter 28

 Jacku



Capturas




Enlaces



descargar peliculas - descargar programas
30 Puntos Score: 10/10
Visitas: 2070 Favoritos: 1
Ver los usuarios que votaron...
13 Comentarios Spider-Man BRrip Mega
J K SIMONS a pelo...
tendras las demas en esta calidad?
genial aporte! bajando.. esperando que subas youn justice invasioN!
Muchas gracias por compartir.
Saludos
@davegrimmy  vamos  a ver si puedo ya que estoy por retirarme intentare retomarla
estas pelis marcaron mi infancia aunque muchos digan que son malas
@davegrimmy  Entre Hoy y mañana subo la Liga de la Justcia invasion solo que una version mas ligera pero la calidad es igual. subire un capitulo para que opinen y digan si esta bien.
@jacku uh! pero yo esperaba la misma calidad. Digo tengo la 1 y los otros 6. Pero bueno. De cto será la calidad? Esperando a ver onda.
@davegrimmy  no te parecio la calidad que te mande? la voy a subir en esa como te dije tiempo es lo que no tengo
si, me gustó. pero pasa que hay posts ya con esa calidad y por eso prefería la otra. Pero bueno muchas gracias igual!
@davegrimmy  es por el tiempo no tengo aun tengo que finalizar otros proyectos
EXCELENTE MUCHAS GRACIAS POR EL APORTE....
Para dejar un comentario Registrate! o.. eres ya usuario? Accede!
Facebook Identi