The Vampire Diaries Temporada 7 720p Web-dl Dual


INFORMACIÓN:
Temporada completa (22/22)
WEBDL 720p Latino(Netflix)
DETALLES

AUDIO: Español Latino - Ingles
SUBTITULOS: Español

Video
ID                             : 1
Format                         : AVC
Format settings, ReFrames      : 5 frames
Codec ID                       : V_MPEG4/ISO/AVC
Duration                       : 42mn 22s
Bit rate                       : 861 Kbps
Width                          : 1 280 pixels
Height                         : 718 pixels
Display aspect ratio           : 16:9
Frame rate mode                : Constant
Frame rate                     : 23.976 fps
Color space                    : YUV
Chroma subsampling             : 4:2:0
Bit depth                      : 8 bits
Audio #1
ID                             : 2
Format                         : MPEG Audio
Format version                 : Version 1
Codec ID/Hint                  : MP3
Duration                       : 42mn 22s
Bit rate                       : 128 Kbps
Channel(s)                     : 2 channels
Sampling rate                  : 32.0 KHz
Stream size                    : 38.8 MiB (12%)
Title                          : Latino
Language                       : Spanish
Audio #2
ID                             : 4
Format                         : MPEG Audio
Duration                       : 42mn 22s
Bit rate                       : 96.0 Kbps
Channel(s)                     : 2 channels
Sampling rate                  : 32.0 KHz
Stream size                    : 29.1 MiB (9%)
Writing library                : LAME3.99.5
Language                       : English
Text
ID                             : 3
Format                         : UTF-8
Codec ID                       : S_TEXT/UTF8
Codec ID/Info                  : UTF-8 Plain Text
Language                       : Spanish
Default                        : Yes

CAPTURAS



ENLACES DE DESCARGA
*COPIAR EN MEGADOWNLOADER





*CUALQUIER LINK CAIDO COMENTAR
descargar peliculas - descargar programas
90 Puntos Score: 10/10
Visitas: 938 Favoritos: 6
Ver los usuarios que votaron...
15 Comentarios The Vampire Diaries Temporada 7 720p Web-dl Dual
 Gracias por el aporte y por el codec x264 dual + subt. !!  
Cita paradiden: Mostrar
Para servirle
Gracias por compartir
gracias por la temporada amigo  , saludos
Que buen aporte drogo77. Felicidades
Muchisimas gracias
:up:gracias ya ya esperaba
Gracias amigo +10
@drogo77 hola estas viste los mensajes que te mande
gracias x compartir
GRACIAS POR ESTA SERIE, ,TENES LAS OTRAS TEMPORADA PARA SUBIR
Para dejar un comentario Registrate! o.. eres ya usuario? Accede!
Facebook Identi