Robot King (1980)


Robot King (1980)

-.¸-,.-~*'¨¯R¨'*·h~-.i¸-,N.-~*'¨o¯¨'C·~-M¸-,.C*'¨¯¨'*·~-.¸-

 Director: Bae Yeong-rang (???)
Guión: ???
Música: ???
Grabación: Yu Chang-guk
Año: 1980
Duración: 64 minutos



Sinopsis: Desde la Nebulosa de Orión una científica en estado de plasma envía un mensaje telepático al Equipo King. Un terrible conquistador, Gallifal se dirige a la Tierra para destruirla y dominarla. Pero desde Orión envían un arma definitiva, ROBOT KING. Cyor, Nuria y Kamky formarán el equipo invencible para defender la Tierra…


En esta ocasión se reparo un viejo VHSrip mejorando la imagen.


Datos del Video:

General
Format : AVI
audio     español(españa)
File size : 612 MiB
Duration  : 1h 4mn
Host:mega

Video
ID                                       : 0
Format                                   : MPEG-4 Visual
Format profile                           : Advanced [email protected]
Format settings, BVOP                    : 2
Format settings, QPel                    : No
Format settings, GMC                     : No warppoints
Format settings, Matrix                  : Default (H.263)
Muxing mode                              : Packed bitstream
Codec ID                                 : XVID
Codec ID/Hint                            : XviD
Duration                                 : 1h 4mn
Bit rate                                 : 1 194 Kbps
Width                                    : 640 pixels
Height                                   : 480 pixels
Display aspect ratio                     : 4:3
Frame rate                               : 25.000 fps
Color space                              : YUV
Chroma subsampling                       : 4:2:0
Bit depth                                : 8 bits
Scan type                                : Progressive
Compression mode                         : Lossy
Bits/(Pixel*Frame)                       : 0.155
Stream size                              : 548 MiB (90%)
Writing library                          : XviD 64

Audio
ID                                       : 1
Format                                   : MPEG Audio
Format version                           : Version 1
Format profile                           : Layer 3
Codec ID                                 : 55
Codec ID/Hint                            : MP3
Duration                                 : 1h 4mn
Bit rate mode                            : Variable
Bit rate                                 : 128 Kbps
Minimum bit rate                         : 128 Kbps
Channel(s)                               : 2 channels
Sampling rate                            : 44.1 KHz
Compression mode                         : Lossy
Stream size                              : 58.7 MiB (10%)
Alignment                                : Split accross interleaves
Interleave, duration                     : 40 ms (1.00 video frame)
Interleave, preload duration             : 499 ms
Writing library                          : LAME3.91
Encoding settings                        : -m s -V 9 -q 2 -lowpass 11.3 –vbr-old -b 128














Enlaces De Descarga




Agradecimientos:
legk//gk

los link no son mios solo comparto!

PD: comentarios que no correpondan con el protocolo de identi seran borrodos







descargar peliculas - descargar programas
10 Puntos Score: 10/10
Visitas: 1403 Favoritos: 4
Ver los usuarios que votaron...
2 Comentarios Robot King (1980)
Genial aporte
saludos  
que super aportazo, gracias amigo  
Para dejar un comentario Registrate! o.. eres ya usuario? Accede!
Facebook Identi