Harry Potter Y El Prisionero De Azkaban [60fps]

Harry Potter Y El Prisionero De Azkaban [60fps] [1080] DUAL [LATINO - INGLES]
NUEVO LINK 


La hago corta

Harry Potter Y El Prisionero De Azkabana 60fps en 1080p DUAL por mega, simple.


SUBIRÉ TODAS EN LAS MISMA CALIDAD

General
Complete name                 : HARRY POTTER AND THE PRISONER OF AZKABAN.mkv
Format                        : Matroska
Format version                : Version 4 / Version 2
File size                     : 7.81 GiB
Duration                      : 2h 21mn
Overall bit rate              : 7 889 Kbps
Movie name                    : HARRY POTTER AND THE PRISONER OF AZKABAN
Encoded date                  : UTC 2015-09-22 21:30:31
Writing application           : mkvmerge v7.0.0 ('Where We Going') 32bit built on Jun  9 2014 15:08:34
Writing library               : libebml v1.3.0 + libmatroska v1.4.1
DURATION                      : 02:21:42.176000000
NUMBER_OF_FRAMES              : 265693
NUMBER_OF_BYTES               : 680174080
_STATISTICS_WRITING_APP       : mkvmerge v7.0.0 ('Where We Going') 32bit built on Jun  9 2014 15:08:34
_STATISTICS_WRITING_DATE_UTC  : 2015-09-22 21:30:31
_STATISTICS_TAGS              : BPS DURATION NUMBER_OF_FRAMES NUMBER_OF_BYTES

Video
ID                            : 1
Format                        : AVC
Format/Info                   : Advanced Video Codec
Format profile                : [email protected]
Format settings, CABAC        : Yes
Format settings, ReFrames     : 4 frames
Codec ID                      : V_MPEG4/ISO/AVC
Duration                      : 2h 21mn
Bit rate                      : 6 862 Kbps
Width                         : 1 920 pixels
Height                        : 800 pixels
Display aspect ratio          : 2.133
Original display aspect ratio : 2.40:1
Frame rate mode               : Constant
Frame rate                    : 59.880 fps
Color space                   : YUV
Chroma subsampling            : 4:2:0
Bit depth                     : 8 bits
Scan type                     : Progressive
Bits/(Pixel*Frame)            : 0.075
Stream size                   : 6.64 GiB (85%)
Title                         : HARRY POTTER AND THE PRISONER OF AZKABAN
Writing library               : x264 core 133 r2334 a3ac64b
Language                      : English
Default                       : Yes
Forced                        : No

Audio #1
ID                            : 2
Format                        : AC-3
Format/Info                   : Audio Coding 3
Mode extension                : CM (complete main)
Format settings, Endianness   : Big
Codec ID                      : A_AC3
Duration                      : 2h 21mn
Bit rate mode                 : Constant
Bit rate                      : 384 Kbps
Channel(s)                    : 6 channels
Channel positions             : Front: L C R, Side: L R, LFE
Sampling rate                 : 48.0 KHz
Bit depth                     : 16 bits
Compression mode              : Lossy
Stream size                   : 389 MiB (5%)
Title                         : AUDIO LATINO
Language                      : Spanish
Default                       : Yes
Forced                        : No

Audio #2
ID                            : 3
Format                        : AC-3
Format/Info                   : Audio Coding 3
Mode extension                : CM (complete main)
Format settings, Endianness   : Big
Codec ID                      : A_AC3
Duration                      : 2h 21mn
Bit rate mode                 : Constant
Bit rate                      : 640 Kbps
Channel(s)                    : 6 channels
Channel positions             : Front: L C R, Side: L R, LFE
Sampling rate                 : 48.0 KHz
Bit depth                     : 16 bits
Compression mode              : Lossy
Stream size                   : 649 MiB (8%)
Title                         : AUDIO INGLES
Language                      : English
Default                       : No
Forced                        : No





SIN PASS -SIN PASS -SIN PASS
descargar peliculas - descargar programas
70 Puntos Score: 8.8/10
Visitas: 1443 Favoritos: 9
Ver los usuarios que votaron...
17 Comentarios Harry Potter Y El Prisionero De Azkaban [60fps]
GENIAL APORTE ME LAS VOY A LLEVAR A TODAS A MEDIDAS Q LAS VAYAS SUBIENDO MUCHAS GRACIAS DESDE YA
muy buen aporte pero deberias adornar mas el post  
Cita amistad: Mostrar

Me gustaría, pero no cuento con el tiempo necesario
@mariooc sipnosis copiala de wikipedia.....datos de la pelicula escritos por ti..no tiene que ser mucho por ejemplo...nombre,calidad,idioma,codec,formato,peso........eso es lo que puntuamos aqui en las pelis....
eso está en la primeras lineas

Complete name                 : HARRY POTTER AND THE PRISONER OF AZKABAN.mkv
Format                        : Matroska
Format version                : Version 4 / Version 2
File size                     : 7.81 GiB

lo que reconozco es que no es la mejor presentación.
cuando salga de mi trabajo lo editaré.


saludos
Lo importante es el aporte... el post es lo de menos, no des bola jajaja.
Excelente men, síguelas subiendo.  
Excelente!!!! Muchas gracias por tus aportes!!! son clasicos que debemos tener y si es en esta calidad mucho mejor!!!
espero las demas!!! no cuento con puntos, pero te daria 10 por cada pelicula
exelente me llevare todas cuando las subas
Ok. Veamos la diferencia de otras versiones que tengo, Chaz Gracias.
Son las mismas peliculas que posteo @naranjos para no bajar doble...
hola, vas a seguir subiendo la saga?  
Cita Merrr: Mostrar
http://www.identi.li/index.php?topic=454889
@mariooc lo vi!! graciasssss
Gracias por las peliculas se ven increibles, solo tengo un problema, esta no se reproduce alguna idea? o algun reproductor? tengo km y vlc, Gracias de antemano
Para dejar un comentario Registrate! o.. eres ya usuario? Accede!
Facebook Identi