Harry Potter Y La Cámara Secreta [60fps] [1080]

Harry Potter Y La Cámara Secreta[60fps] [1080] DUAL [LATINO - INGLES]





La hago corta

Harry Potter Y La Cámara Secreta a 60fps en 1080p DUAL por mega, simple.


SUBIRÉ TODAS EN LAS MISMA CALIDAD

General
Complete name                            : HARRY POTTER AND THE CHAMBER OF SECRETS.mkv
Format                                   : Matroska
Format version                           : Version 4 / Version 2
File size                                : 7.84 GiB
Duration                                 : 2h 40mn
Overall bit rate                         : 6 978 Kbps
Movie name                               : HARRY POTTER AND THE CHAMBER OF SECRETS
Encoded date                             : UTC 2015-06-03 03:17:59
Writing application                      : mkvmerge v6.9.1 ('Blue Panther') 32bit built on Apr 18 2014 18:15:44
Writing library                          : libebml v1.3.0 + libmatroska v1.4.1

Video
ID                                       : 1
Format                                   : AVC
Format/Info                              : Advanced Video Codec
Format profile                           : [email protected]
Format settings, CABAC                   : Yes
Format settings, ReFrames                : 4 frames
Codec ID                                 : V_MPEG4/ISO/AVC
Duration                                 : 2h 40mn
Bit rate                                 : 5 952 Kbps
Width                                    : 1 920 pixels
Height                                   : 800 pixels
Display aspect ratio                     : 2.133
Original display aspect ratio            : 2.40:1
Frame rate mode                          : Constant
Frame rate                               : 59.880 fps
Color space                              : YUV
Chroma subsampling                       : 4:2:0
Bit depth                                : 8 bits
Scan type                                : Progressive
Bits/(Pixel*Frame)                       : 0.065
Stream size                              : 6.54 GiB (83%)
Title                                    : HARRY POTTER AND THE CHAMBER OF SECRETS
Writing library                          : x264 core 133 r2334 a3ac64b
Language                                 : English
Default                                  : Yes
Forced                                   : No

Audio #1
ID                                       : 2
Format                                   : AC-3
Format/Info                              : Audio Coding 3
Mode extension                           : CM (complete main)
Format settings, Endianness              : Big
Codec ID                                 : A_AC3
Duration                                 : 2h 40mn
Bit rate mode                            : Constant
Bit rate                                 : 384 Kbps
Channel(s)                               : 6 channels
Channel positions                        : Front: L C R, Side: L R, LFE
Sampling rate                            : 48.0 KHz
Bit depth                                : 16 bits
Compression mode                         : Lossy
Stream size                              : 442 MiB (6%)
Title                                    : AUDIO LATINO
Language                                 : Spanish
Default                                  : Yes
Forced                                   : No

Audio #2
ID                                       : 3
Format                                   : AC-3
Format/Info                              : Audio Coding 3
Mode extension                           : CM (complete main)
Format settings, Endianness              : Big
Codec ID                                 : A_AC3
Duration                                 : 2h 40mn
Bit rate mode                            : Constant
Bit rate                                 : 640 Kbps
Channel(s)                               : 6 channels
Channel positions                        : Front: L C R, Side: L R, LFE
Sampling rate                            : 48.0 KHz
Bit depth                                : 16 bits
Compression mode                         : Lossy
Stream size                              : 737 MiB (9%)
Title                                    : AUDIO INGLES
Language                                 : English
Default                                  : No
Forced                                   : No







SIN PASS -SIN PASS -SIN PASS
descargar peliculas - descargar programas
40 Puntos Score: 10/10
Visitas: 1122 Favoritos: 4
Ver los usuarios que votaron...
10 Comentarios Harry Potter Y La Cámara Secreta [60fps] [1080]
También me llevo ésta. Lástima que no tengas las versiones extendidas, pero el aporte es excelente.

Salutes.
Cita MLPF: Mostrar
Cita MLPF: Mostrar
genial!!! gracias!
ESPERANDO  el resto de la saga amigo, vine a dejar mis respectivos puntos, gracias  
Cita argentum: Mostrar
http://www.identi.li/index.php?topic=454889
@MLPF @Merrr @argentum @mariooc hola amigos ........por casualidad esta pelicula no les dio problemas al reproducirla ...porque parece que el 60 FPS va a velocidad normal tanto en mi PC como en mi bluray ......solo casi en la escena de la serpiente basilisco ya se muestra correctamente.....con el realismo.......tengo la duda de poder haberla bajado mal
@amistad, tambien la vi como si fuera normal amigo  
Cita argentum: Mostrar

me compre una cuenta premium de MEGA para poder descargar bien ....pero tal parece que el encodeo esta erroneo ya que se muestra como un 1080p normal algo borroso..........solo hay escenas ya casi al final muy marcadas donde se muestran los 60fps reales...........lo malo que es muy dificil encontrarla por internet y por lo que veo es la version unica del usuario naranjos
Para dejar un comentario Registrate! o.. eres ya usuario? Accede!
Facebook Identi