Harry Potter Y La Piedra Filosofal [60fps] [1080]

Harry Potter Y La Piedra Filosofal [60fps] [1080] DUAL [LATINO - INGLES] 
NUEVO LINK 

http://www.identi.li/index.php?topic=454889






La hago corta

Harry Potter Y La Piedra Filosofal a 60fps en  1080p DUAL por mega, simple.


SUBIRÉ TODAS EN LAS MISMA CALIDAD


Complete name                            : HARRY POTTER AND THE SORCERER'S STONE.mkv
Format                                   : Matroska
Format version                           : Version 4 / Version 2
File size                                : 7.75 GiB
Duration                                 : 2h 32mn
Overall bit rate                         : 7 284 Kbps
Movie name                               : HARRY POTTER AND THE SORCERER'S STONE
Encoded date                             : UTC 2015-05-06 06:21:58
Writing application                      : mkvmerge v6.9.1 ('Blue Panther') 32bit built on Apr 18 2014 18:15:44
Writing library                          : libebml v1.3.0 + libmatroska v1.4.1

Video
ID                                       : 1
Format                                   : AVC
Format/Info                              : Advanced Video Codec
Format profile                           : [email protected]
Format settings, CABAC                   : Yes
Format settings, ReFrames                : 4 frames
Codec ID                                 : V_MPEG4/ISO/AVC
Duration                                 : 2h 32mn
Bit rate                                 : 6 194 Kbps
Width                                    : 1 920 pixels
Height                                   : 792 pixels
Display aspect ratio                     : 2.133
Original display aspect ratio            : 2.40:1
Frame rate mode                          : Constant
Frame rate                               : 59.880 fps
Color space                              : YUV
Chroma subsampling                       : 4:2:0
Bit depth                                : 8 bits
Scan type                                : Progressive
Bits/(Pixel*Frame)                       : 0.068
Stream size                              : 6.44 GiB (83%)
Title                                    : HARRY POTTER AND THE SORCERER'S STONE
Writing library                          : x264 core 133 r2334 a3ac64b


Language                                 : English
Default                                  : Yes
Forced                                   : No

Audio #1
ID                                       : 2
Format                                   : AC-3
Format/Info                              : Audio Coding 3
Mode extension                           : CM (complete main)
Format settings, Endianness              : Big
Codec ID                                 : A_AC3
Duration                                 : 2h 32mn
Bit rate mode                            : Constant
Bit rate                                 : 448 Kbps
Channel(s)                               : 6 channels
Channel positions                        : Front: L C R, Side: L R, LFE
Sampling rate                            : 48.0 KHz
Bit depth                                : 16 bits
Compression mode                         : Lossy
Stream size                              : 488 MiB (6%)
Title                                    : AUDIO LATINO
Language                                 : Spanish
Default                                  : Yes
Forced                                   : No

Audio #2
ID                                       : 3
Format                                   : AC-3
Format/Info                              : Audio Coding 3
Mode extension                           : CM (complete main)
Format settings, Endianness              : Big
Codec ID                                 : A_AC3
Duration                                 : 2h 32mn
Bit rate mode                            : Constant
Bit rate                                 : 640 Kbps
Channel(s)                               : 6 channels
Channel positions                        : Front: L C R, Side: L R, LFE
Sampling rate                            : 48.0 KHz
Bit depth                                : 16 bits
Compression mode                         : Lossy
Stream size                              : 697 MiB (9%)
Title                                    : AUDIO INGLES
Language                                 : English
Default                                  : No
Forced                                   : No








SIN PASS -SIN PASS -SIN PASS
descargar peliculas - descargar programas
90 Puntos Score: 10/10
Visitas: 1713 Favoritos: 9
Ver los usuarios que votaron...
25 Comentarios Harry Potter Y La Piedra Filosofal [60fps] [1080]
Podrías agregar unas cuantas capturas para saber que tal se ve
esperando el resto amigo, gracias  
Buen aporte men, pero le hace falta más info. Por ej. Peso, Duración,contenedor, códec..etc.
Esta es la versión extendida o normal cut??

Salutes.
@mariooc Excelente calidad amigo pero tambien debes agregar especificaciones del video tales como el tamaño el formato pistas de audio si tiene subtitulos y todo porque hay especificaciones que ciertos televisores no pueden leer y esto ayuda a saber si se puede o no descargar la pelicula para disfrutar te doy +10 por la calidad de la pelicula pero toma mi consejo y sigue mejorando  
genial!!! gracias
No pues, muchas gracias.    Mas fácil no creo que se pueda  
faltan datos, es la versión extendida?
Cita red_rex: Mostrar

Cita Aldo009: Mostrar



Mi idea es compartir con ustedes de manera rápida  pero tienen razón un poco más de info pondré
Genial   a descargas y disfrutar van 10 Saludos y en espera de las demas de la saga
Ahora sí.  
Cita argentum: Mostrar

ya vamos por la segunda
http://www.identi.li/index.php?topic=454585
gracias amigo esta es la version extendida?
Gracias amigo, aporte de alta calidad!
Muchas Gracias,  Servidor MEGA, solo 2 enlaces y además se ve ESPECTACULAR en 30 fps
Cita emeritusMX: Mostrar

59.880 fps  
Cita mariooc: Mostrar
Cita emeritusMX: Mostrar
Es la idea, hoy subí 23.41GB

Tengo todas la películas
pero me quede sin espacio para descomprimir  
Cita kamikaze00: Mostrar
misma pregunta    
Descargada sin problemas , se ve y escucha excelente.

Salutes.
Cita JuanRodr: Mostrar
Es la versión theatrical (normal cut) la extendida dura 2:38 y ésta 2:32.

Salutes.
Cita JuanRodr: Mostrar


por lo que tengo entendido la versión extendida dura 159min y la que yo subí solo 152min
así que NO es la versión extendida
Cita kamikaze00: Mostrar
no me gustan las peliculas en 60 fps, siento que me marea el movimiento, pero gracias por el aporte  
Muchas gracias, fue la única qué encontré online aquí, aunque mi compu no puede reproducirla del todo...  
Para dejar un comentario Registrate! o.. eres ya usuario? Accede!
Facebook Identi