General Daimos (Starbirds película)



General Daimo
(Starbirds película)




-.¸-,.-~*'¨¯R¨'*·h~-.i¸-,N.-~*'¨o¯¨'C·~-M¸-,.C*'¨¯¨'*·~-.¸-
Serie de TV (1978-1979). 44 episodios. Tercera serie animé de mechas de la “Robot Romance Trilogy”. Tras la destrucción del planeta Baam, sus sobrevivientes se dirigen hacia la Tierra, con el objetivo de negociar la compra de terrenos para vivir. Durante las negociaciones, el líder de Baam, Leon, es asesinado por Georiya, su segundo al mando; y la delegación terrícola es acusada por el asesinato. Poco después, se inicia una campaña de terror contra la Tierra, liderada por el almirante Richter, hijo de Leon, que despliega un ataque con una variedad de robots gigantes. El piloto Kazuya Ryuzaki comandará la defensa, utilizando su robot Daimos. Todo parece complicarse cuando Kazuya se enamora de una misteriosa chica que resulta ser la hermana de Ritcher. (FILMAFFINITY)
 




Título original:Tôshô Daimos (General Daimos) – Battle Commander Daimos (TV Series)

Año: 1978
Duración: 24 min.
País:  Japón

Sobre la pelicula:

Título en España: Starbirds: águilas del espacio / Aves del espacio / General Daimos
Título “original” estadounidense: Starbirds
Título de la serie original japonesa: Tosho Daimos /??????
Año: 1983
Duración: 72 minutos

Sinopsis: 
“Hay millones de estrellas en el Universo. A cada minuto nacen nuevos soles y viejos soles mueren. Muchas de estas estrellas cuentan con planetas que giran alrededor y que están habitados por criaturas semejantes a los seres humanos. Una estrella de una galaxia distante explotó y los habitantes del planeta Valerion se vieron obligados a construir una enorme colonia espacial para escapar. La colonia se llamaba Valirion 2. Llegaron al sistema solar de nuestra Tierra y se pusieron en órbita alrededor de Júpiter. Como el viaje duró cientos de años luz, los habitantes se sometieron a una terapia de sueño. Los primeros en despertar fueron los gobernantes de Valerion 2. Necesitan un nuevo planeta para subsistir y planean invadir la Tierra…”


Datos del video:

conversion de vhs a formato digital por:
 LEGK
 Gorgue_Kabutto

Video

Format                                   : MPEG-4 Visual
Format profile                           : Advanced [email protected]
Format settings, BVOP                    : 2
Format settings, QPel                    : No
Format settings, GMC                     : No warppoints
Format settings, Matrix                  : Default (H.263)
Muxing mode                              : Packed bitstream
Codec ID                                 : XVID
Codec ID/Hint                            : XviD
Duration                                 : 1h 12mn
Bit rate                                 : 1 194 Kbps
Width                                    : 640 pixels
Height                                   : 360 pixels
Display aspect ratio                     : 16:9
Frame rate                               : 25.000 fps
Color space                              : YUV
Chroma subsampling                       : 4:2:0
Bit depth                                : 8 bits
Scan type                                : Progressive
Compression mode                         : Lossy
Bits/(Pixel*Frame)                       : 0.207
Stream size                              : 617 MiB (90%)
Writing library                          : XviD 64

Audio
ID                                       : 1
Format                                   : MPEG Audio
Format version                           : Version 1
Format profile                           : Layer 3
Codec ID                                 : 55
Codec ID/Hint                            : MP3
Duration                                 : 1h 12mn
Bit rate mode                            : Constant
Bit rate                                 : 128 Kbps
Channel(s)                               : 2 channels
Sampling rate                            : 44.1 KHz
Compression mode                         : Lossy
Stream size                              : 66.1 MiB (10%)
Alignment                                : Split accross interleaves
Interleave, duration                     : 40 ms (1.00 video frame)
Interleave, preload duration             : 499 ms



















Enlaces De Descarga




Agradecimientos:

 LEGK
 Gorgue_Kabutto
eskinaGk

los link no son mios solo comparto!

PD: comentarios que no correpondan con el protocolo de identi seran borrodos








descargar peliculas - descargar programas
15 Puntos Score: 7.5/10
Visitas: 1309 Favoritos: 5
Ver los usuarios que votaron...
8 Comentarios General Daimos (Starbirds película)
no tendras la de baldios o la de ideon??
yo las tenia hace bastante tiempo pero cuando paso lo de megaupload murieron hay y ya no las encontre

salu2!!
@Getter01 si te referis a Space Runaway Ideon lo tengo pero en japones subtitulado
si la puedes subir te lo agradeceria mucho

salu2!!
Esta en audio español? gracias de antemano por aclarar mi duda.
Muchas gracias por aclarar mi duda... y gracias por compartir.
Para dejar un comentario Registrate! o.. eres ya usuario? Accede!
Facebook Identi